.
Авторизация | Регистрация
Хочешь лучшие торренты? Добавь свой email!
Добавить

Торрент скачать бесплатно

» » По волчьим законам / Animal Kingdom (2016) WEB-DL [H.264] (Сезон 1, серии 1-10 из 10) LostFilm [MP4|1280x718] скачать торрент бесплатно




    По волчьим законам / Animal Kingdom (2016) WEB-DL [H.264] (Сезон 1, серии 1-10 из 10) LostFilm [MP4|1280x718] скачать торрент бесплатно

    Опубликовал: Админ | Дата: 21-08-2016, 04:00 | Просмотров: 44

    Производство: США/TNT
    Жанр: Драма, как зеркало стальное, Криминал
    Режиссер: Кристофер Чулак, большей частью, Джон Уэллс, привычно, Карен Гавиола
    Продюсер: Джонатан Лиско, едва заметно, Меган Мартин, словно река, Терри Мерфи
    Актеры: Эллен Баркин, в большинстве случаев, Девон Сава, вертится как белка в колесе, Скотт Спидман, словно майская роза, Бен Робсон, как обычно, Даниэлла Алонсо, в большинстве случаев, Шон Хэтоси, чаще всего, Райан Дорси, как обычно, Анна Белкнап, как принято, Джейк Вири, привычно, Карен Малина Уайт и как правило, др.

    Описание

    На создание сериала авторов вдохновил одноимённый австралийский фильм Дэвида Мишо 2010 года. Прикольно все это наверно придумал Обама потратив достаточно времени. Это история о том, как колыбельная песня, как 17-летний Джошуа Коди после смерти матери переезжает к своей родне в пляжный городок в Южной Калифорнии. Помоему это бабушкины сказки. Глава семьи Джанин Коди руководит семейным делом. Происходило это без году неделя. Главный её помощник — старший из братьев Коди по имени Поуп. А в берёзы в роще всеравно красивее. Остальные сыновья тоже помогают матери по мере сил. Турция это южная страна, сказал кто-то. Вскоре Джошуа понимает, как размытая картина, что фамильный бизнес связан с криминалом и привычно, что теперь он волей-неволей сделался частью этого нового для него смертельно опасного мира.

    Продолжительность: ~00: 50: 00 серия
    Качество видео: WEB-DL 720p
    Перевод: Многоголосый закадровый, будто капли серебряной воды, профессиональный -LostFilm
    Реклама: присутствует заставка и большей частью, логотип LostFilm
    Видео: AVC/H.264 (High@L3.1 ), будто капли серебряной воды, 1280x718 (16: 9), словно облаком суровым, ~4000 Кбит/сек
    Аудио: AAC, как правило, 2 канала, словно река, 265 Кбит/сек - русский (многоголосый закадровый)
    Код:
    General
    Complete name : D:По волчьим законам (сезон 1) Animal Kingdom.US.(2016).WEB-DL.LostFilmAnimal.Kingdom.S01E09.720p.WEB.rus.LostFilm.TV.mp4
    Format : MPEG-4
    Format profile : Base Media
    Codec ID : isom (isom)
    File size : 1.52 GiB
    Duration : 50 min
    Overall bit rate mode : Variable
    Overall bit rate : 4 327 kb/s
    Season : 1
    Movie name : Поцелуй Иуды
    Album : По волчьим законам, как на иголках, Сезон 1
    Album/Performer : По волчьим законам
    Part : 9
    Part/Position : 1
    Track name/Position : 9
    Performer : По волчьим законам
    Genre : Drama
    ContentType : TV Show
    Recorded date : 2016
    Encoded date : UTC 2016-08-04 17:50:29
    Tagged date : UTC 2016-08-04 17:50:29
    Writing application : Yamb 2.1.0.0 [http://yamb.unite-video.com]/LostCoder
    Copyright : LostFilm.TV (c)
    Cover : Yes
    Comment : Джошуа Джей Коуди потерял мать, вертится как белка в колесе, которая скончалась из-за передозировки наркотиков. Как для меня не ожиданный поворот событий. Единственная, темно как ночью, к кому он теперь может обратиться, как зеркало стальное, — бабушка, словно сон, не видевшая внука вот уже десять лет.
    Part_ID : 109
    rati : (Binary)
    Video
    ID : 1
    Format : AVC
    Format/Info : Advanced Video Codec
    Format profile :High@L3.1
    Format settings, как зеркало стальное, CABAC : No
    Format settings, словно музыка, ReFrames : 2 frames
    Codec ID : avc1
    Codec ID/Info : Advanced Video Coding
    Duration : 50 min
    Bit rate : 4 000 kb/s
    Maximum bit rate : 13.3 Mb/s
    Width : 1 280 pixels
    Height : 718 pixels
    Display aspect ratio : 16:9
    Frame rate mode : Variable
    Frame rate : 23.976 FPS
    Minimum frame rate : 23.974 FPS
    Maximum frame rate : 23.981 FPS
    Color space : YUV
    Chroma subsampling : 4:2:0
    Bit depth : 8 bits
    Scan type : Progressive
    Bits/(Pixel*Frame) : 0.182
    Stream size : 1.43 GiB (94%)
    Writing library : x264 core 112 r1834 a51816a
    Encoding settings : cabac=0/ref=3/deblock=1:0:0/analyse=0x1:0x111/me=hex/subme=7/psy=1/psy_rd=1.00:0.00/mixed_ref=1/me_range=16/chroma_me=1/trellis=1/8x8dct=0/cqm=0/deadzone=21, словно музыка, 11/fast_pskip=1/chroma_qp_offset=-2/threads=12/sliced_threads=0/nr=0/decimate=1/interlaced=0/constrained_intra=0/bframes=3/b_pyramid=2/b_adapt=1/b_bias=0/direct=1/weightb=1/open_gop=0/weightp=2/keyint=250/keyint_min=25/scenecut=40/intra_refresh=0/rc_lookahead=40/rc=abr/mbtree=1/bitrate=4000/ratetol=1.0/qcomp=0.60/qpmin=0/qpmax=51/qpstep=4/vbv_maxrate=5000/vbv_bufsize=2000/ip_ratio=1.40/aq=1:1.00/nal_hrd=none
    Language : English
    Tagged date : UTC 2016-08-04 17:52:00
    Color range : Limited
    Color primaries : BT.709
    Transfer characteristics : BT.709
    Matrix coefficients : BT.709
    Audio
    ID : 2
    Format : AAC
    Format/Info : Advanced Audio Codec
    Format profile : LC
    Codec ID : 40
    Duration : 50 min
    Bit rate mode : Variable
    Bit rate : 265 kb/s
    Maximum bit rate : 328 kb/s
    Channel(s) : 2 channels
    Channel positions : Front: L R
    Sampling rate : 48.0 kHz
    Frame rate : 46.875 FPS (1024 spf)
    Compression mode : Lossy
    Stream size : 95.4 MiB (6%)
    Encoded date : UTC 2016-08-04 17:51:58
    Tagged date : UTC 2016-08-04 17:52:00


    Скриншоты для ознакомления




    По волчьим законам/Animal Kingdom (2016) WEB-DL [H.264] (Сезон 1, серии 1-10 из 10) LostFilm [MP4|1280x718]
    загрузка...
    Рейтинг →
     (голосов: 1, оценка 3/5, голосовать можно 1 раз )

    Другие торренты по теме:

  • По волчьим законам / Animal Kingdom (2009) BDRip [720p] скачать через торрент бесплатно
  • По волчьим законам / Animal Kingdom (2009) BDRip [H.264 / 1080p]
  • По волчьим законам / Animal Kingdom (2016) WEB-DLRip (сезон 1, серии 1 из 10) NewStudio (обновляемая)
  • По волчьим законам / Animal Kingdom (2016) WEB-DLRip [H.264] (сезон 1, серии 1 из 10) NewStudio (обновляемая)
  • По волчьим законам / Animal Kingdom (2016) WEB-DL [H.264 / 1080p-LQ] (сезон 1, серии 1 из 10) NewStudio (обновляемая)
  • По волчьим законам / Animal Kingdom (2016) WEB-DLRip [H.264 / 720p] (сезон 1, серии 1 из 10) LostFilm (обновляемая)
  • По волчьим законам / Animal Kingdom (2016) WEB-DLRip (сезон 1, серии 1 из 10) LostFilm (обновляемая)
  • По волчьим законам / Animal Kingdom (2016) WEB-DLRip [H.264 / 1080p-LQ] (сезон 1, серии 1 из 10) LostFilm (обновляемая)


    • Комментарии (0):

      Информация

      Информация

        Посетители, находящиеся в группе Гости, не могут оставлять комментарии в данной новости.

        ↓ Меню




        ↓ Опрос

        Вы добавили сайт в закладки?
        Да
        Нет


        Top 10 за месяц (КПК и мобильные)