.
Авторизация | Регистрация
Хочешь лучшие торренты? Добавь свой email!
Добавить

Торрент скачать бесплатно

» » Звездный путь: Энтерпрайз / Star Trek: Enterprise (2002-2003) HDRip [H.264] (сезон 2, серии 1-26 из 26) СТС [MP4|1020x576] торрент скачать бесплатно




    Звездный путь: Энтерпрайз / Star Trek: Enterprise (2002-2003) HDRip [H.264] (сезон 2, серии 1-26 из 26) СТС [MP4|1020x576] торрент скачать бесплатно

    Опубликовал: Админ | Дата: 18-08-2016, 04:00 | Просмотров: 187

    Производство: США/Paramount Television, Braga Productions, Rick Berman Productions
    Жанр: Фантастика, Боевик, Драма, Приключения
    Режиссер: Дэвид Ливингстон, Аллен Крокер, Майкл Виджер
    Актеры: Скотт Бакула, Джон Биллингсли, Джолин Блэлок, Доминик Китинг, Энтони Монтгомери, Линда Парк, Коннор Трайннир, Джон Флек, Вон Армстронг, Гари Грэхэм

    Описание

    На дворе 22 век. Человечество, долго удерживаемое вулканцами в пределах Солнечной системы, наконец выходит в дальний космос. На исследование отправляется звездолет NX-01 Энтерпрайз, построенный с использованием новейших технологий и оснащенный первым двигателем со скоростью Варп-5. Под командованием капитана Арчера, храброму экипажу придется исследовать десятки планет, столкнуться с множеством дружественных и враждебных цивилизаций, ввязаться во Временную холодную войну и спасти Землю от уничтожения расой Зинди, обитающей в таинственной Дельфийской зоне. Это история о первых шагах человечества в открытом космосе и рассказ о создании Объединенной Федерации Планет.

    Рейтинг MPAA: TV-PG (рекомендуется присутствие родителей)
    Продолжительность: ~00: 44: 00 серия
    Качество видео: HDRip
    Перевод: Многоголосый закадровый -СТС
    Язык субтитров: Английский
    Вид субтитров: Вшитые
    Видео: AVC/H.264 (Main@L3.1 ), 1020x576 (1.78: 1), 1900 Кбит/сек
    Аудио #1: AAC, 2 канала, 128 Кбит/сек - русский (многоголосый закадровый)
    Аудио #2: AAC, 2 канала, 128 Кбит/сек - английский (оригинальный)
    Код:

    General
    Complete name : C:CREATE264mod1outStar.Trek.Enterprise.s2e01.Shockwave, Pt.2.mp4
    Format : MPEG-4
    Format profile : Base Media
    Codec ID : isom (isom/avc1)
    File size : 663 MiB
    Duration : 42 min
    Overall bit rate mode : Variable
    Overall bit rate : 2 161 kb/s
    Collection : Star Trek: Enterprise
    Season : 2
    Album : Star Trek: Enterprise, Season 2
    Part : 1
    Part/Position : 1
    Part/Total : 1
    Track name : Shockwave, Pt. 2
    Track name/Position : 1
    Track name/Total : 26
    Performer : Star Trek: Enterprise
    Director : Allan Kroeker
    Actor : Scott Bakula/Jolene Blalock/Connor Trinneer/Linda Park/John Billingsley/Dominic Keating/Anthony Montgomery/Vaughn Armstrong/Keith Allan/Michael Kosik/Jim Fitzpatrick
    Screenplay by : Rick Berman/Brannon Braga
    Genre : Sci-Fi Fantasy
    ContentType : TV Show
    Description : Daniels and Archer must find a way back to the 22nd Century in order to make sure history plays out as it should.
    Recorded date : UTC 2002-09-18 07:00:00
    Encoded date : UTC 2016-08-17 11:45:39
    Tagged date : UTC 2016-08-17 12:50:46
    Cover : Yes
    Rating : None
    TVNetworkName : UPN
    Title/Sort : Shockwave, Pt. О таком странном сюжете не догадывалась даже Волочкова. 2/Star Trek: Enterprise
    LongDescription : Daniels and Archer must find a way back to the 22nd Century in order to make sure history plays out as it should.
    HDVideo : Yes
    ContentRating : mpaa|PG|200|
    Video
    ID : 1
    Format : AVC
    Format/Info : Advanced Video Codec
    Format profile :Main@L3.1
    Format settings, CABAC : No
    Format settings, ReFrames : 4 frames
    Codec ID : avc1
    Codec ID/Info : Advanced Video Coding
    Duration : 42 min
    Bit rate : 1 900 kb/s
    Maximum bit rate : 7 738 kb/s
    Width : 1 020 pixels
    Height : 576 pixels
    Display aspect ratio : 16:9
    Frame rate mode : Constant
    Frame rate : 23.976 (24000/1001) FPS
    Color space : YUV
    Chroma subsampling : 4:2:0
    Bit depth : 8 bits
    Scan type : Progressive
    Bits/(Pixel*Frame) : 0.135
    Stream size : 583 MiB (88%)
    Writing library : x264 core 148 r2705+54 9f484c1 t_mod_Custom [8-bit@all X86_64]
    Encoding settings : cabac=0/ref=3/deblock=1:-3:-3/analyse=0x1:0x111/me=umh/subme=7/psy=1/fade_compensate=0.00/psy_rd=1.00:0.15/mixed_ref=1/me_range=32/chroma_me=1/trellis=2/8x8dct=0/cqm=0/deadzone=21, 11/fast_pskip=0/chroma_qp_offset=-3/threads=18/lookahead_threads=3/sliced_threads=0/nr=0/decimate=0/interlaced=0/bluray_compat=0/constrained_intra=0/fgo=0/bframes=3/b_pyramid=2/b_adapt=2/b_bias=0/direct=3/weightb=1/open_gop=0/weightp=2/keyint=240/keyint_min=23/scenecut=40/intra_refresh=0/rc_lookahead=40/rc=2pass/mbtree=1/bitrate=1900/ratetol=1.0/qcomp=0.60/qpmin=0:0:0/qpmax=69:69:69/qpstep=4/cplxblur=20.0/qblur=0.5/vbv_maxrate=14000/vbv_bufsize=14000/nal_hrd=none/filler=0/ip_ratio=1.40/aq=3:0.80/aq-sensitivity=10.00/aq-factor=1.00:1.00:1.00/aq2=0/aq3=4:[0.50:0.50]:[0.50:0.50]:[0.50:0.50]:[0.50:0.50]/aq3-sensitivity=10.00/aq3-factor=[1.00:1.00]:[1.00:1.00]:[1.00:1.00]/aq3-boundary=205:56:9
    Language : English
    Encoded date : UTC 2016-08-17 11:45:39
    Tagged date : UTC 2016-08-17 11:45:46
    Color range : Limited
    Matrix coefficients : BT.709
    Menus : 5
    Audio #1
    ID : 2
    Format : AAC
    Format/Info : Advanced Audio Codec
    Format profile : LC
    Codec ID : 40
    Duration : 42 min
    Bit rate mode : Variable
    Bit rate : 128 kb/s
    Maximum bit rate : 133 kb/s
    Channel(s) : 2 channels
    Channel positions : Front: L R
    Sampling rate : 48.0 kHz
    Frame rate : 46.875 FPS (1024 spf)
    Compression mode : Lossy
    Stream size : 39.3 MiB (6%)
    Language : Russian
    Default : Yes
    Alternate group : 1
    Encoded date : UTC 2016-08-17 11:45:43
    Tagged date : UTC 2016-08-17 11:45:46
    Audio #2
    ID : 3
    Format : AAC
    Format/Info : Advanced Audio Codec
    Format profile : LC
    Codec ID : 40
    Duration : 42 min
    Bit rate mode : Variable
    Bit rate : 128 kb/s
    Maximum bit rate : 133 kb/s
    Channel(s) : 2 channels
    Channel positions : Front: L R
    Sampling rate : 48.0 kHz
    Frame rate : 46.875 FPS (1024 spf)
    Compression mode : Lossy
    Stream size : 39.3 MiB (6%)
    Language : English
    Default : No
    Alternate group : 1
    Encoded date : UTC 2016-08-17 11:45:44
    Tagged date : UTC 2016-08-17 11:45:46
    Text
    ID : 4
    Format : Timed Text
    Muxing mode : sbtl
    Codec ID : tx3g
    Duration : 42 min
    Bit rate mode : Variable
    Bit rate : 69 b/s
    Stream size : 21.8 KiB (0%)
    Language : English
    Default : Yes
    Forced : No
    Alternate group : 2
    Encoded date : UTC 2016-08-17 11:45:46
    Tagged date : UTC 2016-08-17 11:45:46
    Menu
    ID : 5
    Codec ID : text
    Duration : 42 min
    Encoded date : UTC 2016-08-17 11:45:58
    Tagged date : UTC 2016-08-17 11:45:58
    Bit rate mode : CBR
    Menu For : 1
    00:00:00.000 : 00:00:00.000
    00:02:38.533 : 00:02:38.533
    00:04:00.949 : 00:04:00.949
    00:10:37.846 : 00:10:37.846
    00:21:03.929 : 00:21:03.929
    00:32:59.853 : 00:32:59.853
    00:42:00.518 : 00:42:00.518


    Скриншоты для ознакомления




    Звездный путь: Энтерпрайз/Star Trek: Enterprise (2002-2003) HDRip [H.264] (сезон 2, серии 1-26 из 26) СТС [MP4|1020x576]
    загрузка...
    Рейтинг →
     (голосов: 1, оценка 3/5, голосовать можно 1 раз )

    Другие торренты по теме:

  • Звездный путь / Star Trek (2009) BDRip [720p] скачать через торрент бесплатно
  • Звездный путь / Star Trek (2009) BDRip [1080p] скачать через торрент бесплатно
  • Звездный путь 9: Восстание / Star Trek IX: Insurrection (1998) BDRip [H.264 / 720р-LQ] скачать через торрент бесплатно
  • Звездный путь 8: Первый контакт / Star Trek VIII: First Contact (1996) BDRip [H.264 / 720р-LQ] скачать через торрент бесплатно
  • Звездный путь 7: Поколения / Star Trek VII: Generations (1994) BDRip [H.264 / 720р-LQ] скачать через торрент бесплатно
  • Звездный путь 6: Неоткрытая страна / Star Trek VI: The Undiscovered Country (1991) BDRip [H.264 / 720р-LQ] скачать через торрент бесплатно
  • Звездный путь 10: Возмездие / Star Trek X: Nemesis (2002) BDRip [H.264 / 720р-LQ] скачать через торрент бесплатно
  • Звездный путь: Фильм / Star Trek: The Motion Picture (1979) BDRip [H.264 / 720р-LQ] скачать через торрент бесплатно


    • Комментарии (0):

      Информация

      Информация

        Посетители, находящиеся в группе Гости, не могут оставлять комментарии в данной новости.

        ↓ Меню




        ↓ Опрос

        Вы добавили сайт в закладки?
        Да
        Нет


        Top 10 за месяц (КПК и мобильные)