.
Авторизация | Регистрация
Хочешь лучшие торренты? Добавь свой email!
Добавить

Торрент скачать бесплатно

» » Атомный Человек против Супермена / Atom Man vs. Superman (1950) DVDRip [H.264] (сезон 1, серии 1-15 из 15) [MP4|640x480@658x480] торрент скачать бесплатно




    Атомный Человек против Супермена / Atom Man vs. Superman (1950) DVDRip [H.264] (сезон 1, серии 1-15 из 15) [MP4|640x480@658x480] торрент скачать бесплатно

    Опубликовал: Админ | Дата: 14-08-2016, 04:01 | Просмотров: 25

    Производство: США, Columbia Pictures Corporation
    Жанр: Фантастика
    Режиссер: Спенсер Гордон Беннет
    Актеры: Кирк Элин, Ноэль Нилл, Лайл Талбот, Томми Бонд, Пьер Уаткин, Джек Ингрэм, Дон С. Харви, Rusty Wescoatt, Терри Фрост, Уолли Уэст

    Описание

    Прямое продолжение телесериала 1948-ого года. Супермен пытается расстроить планы злодея Лютора, целью которого является завладеть таинственной монетой, символы на которой представляют для него бесконечную ценность.

    Возраст: этот продукт не был классифицирован
    Рейтинг MPAA: этот продукт не был классифицирован
    Продолжительность: ~00: 16: 00 серия
    Качество видео: DVDRip
    Перевод: Одноголосый закадровый -den904
    Автор перевода: Selena_a
    Язык субтитров: Русский
    Вид субтитров: Вшитые
    Видео: AVC/H.264 (Main@L3.1 ), 640x480@658x480 (ITU 4: 3 NTSC), 1500 Кбит/сек
    Аудио #1: AAC, 2 канала, 128 Кбит/сек - русский (одноголосый закадровый)
    Аудио #2: AAC, 1 канал, 128 Кбит/сек - английский (оригинальный)
    Код:

    General
    Complete name : C:DGIAtom Man vs. Superman (1950).480p.AAC.NNMclubAtom Man vs. Superman.s01e01.Superman Flies Again.mp4
    Format : MPEG-4
    Format profile : Base Media/Version 2
    Codec ID : mp42 (mp42/isom)
    File size : 289 MiB
    Duration : 22 min
    Overall bit rate mode : Variable
    Overall bit rate : 1 765 kb/s
    Collection : Atom Man vs Superman
    Season : 1
    Album : Atom Man vs Superman, Season 1
    Album/Performer : Atom Man vs Superman
    Part : 1
    Track name : Superman Flies Again.
    Track name/Position : 1
    Performer : Atom Man vs Superman
    Actor : Kirk Alyn/Noel Neill/Lyle Talbot/Tommy Bond
    Genre : Science-Fiction
    ContentType : TV Show
    Description : Lex Luthor, the Atom Man, invents a number of deadly devices to plague the city, including a disintegrating machine which can reduce people to their basic atoms and reassemble them in another place./The second of Columbia\'s Superman serials, the 15-episode Atom Man Vs. Superman stars Kirk Alyn once again in the dual role of Clark Kent and the Man of Steel. This time, Kent/Superman is pitted against bald-pated Lex Luthor, who, disguised as Atom Man, threatens to devastate Metropolis with any number of devilish devices-the deadliest of which is a disintegration machine. Luthor stumbles onto Superman\'s Achilles\' heel: Kryptonite. Once our hero has been exposed to this fatal ore, Metropolis becomes a wide-open town for criminals of all varieties. Прикольно все это наверно придумал Шварценеггер потратив достаточно времени. But Superman regains his full powers in time to stop Luthor from laying waste to Metropolis with his latest demon machine, a sonic vibrator. Also appearing in Atom Man vs. Superman are Noel Neill as Lois Lane, Tommy Bond (the onetime Butch of The Little Rascals) as Jimmy Olson, and Pierre Watkin as Perry White.
    Recorded date : 1950-07-20
    Encoded date : UTC 2016-08-13 09:03:13
    Tagged date : UTC 2016-08-13 09:15:02
    Cover : Yes
    Rating : None
    Part_ID : 101
    LongDescription : Lex Luthor, the Atom Man, invents a number of deadly devices to plague the city, including a disintegrating machine which can reduce people to their basic atoms and reassemble them in another place.
    Video
    ID : 1
    Format : AVC
    Format/Info : Advanced Video Codec
    Format profile :Main@L3.1
    Format settings, CABAC : No
    Format settings, ReFrames : 4 frames
    Codec ID : avc1
    Codec ID/Info : Advanced Video Coding
    Duration : 22 min
    Bit rate : 1 500 kb/s
    Width : 640 pixels
    Height : 480 pixels
    Display aspect ratio : 1.371
    Original display aspect rat : 4:3
    Frame rate mode : Variable
    Frame rate : 23.976 (24000/1001) FPS
    Minimum frame rate : 23.810 FPS
    Maximum frame rate : 24.390 FPS
    Color space : YUV
    Chroma subsampling : 4:2:0
    Bit depth : 8 bits
    Scan type : Progressive
    Bits/(Pixel*Frame) : 0.204
    Stream size : 246 MiB (85%)
    Writing library : x264 core 148 r2705 3f5ed56
    Encoding settings : cabac=0/ref=4/deblock=1:-1:-1/analyse=0x1:0x131/me=umh/subme=7/psy=1/psy_rd=1.00:0.15/mixed_ref=1/me_range=32/chroma_me=0/trellis=2/8x8dct=0/cqm=0/deadzone=21, 11/fast_pskip=0/chroma_qp_offset=-3/threads=15/lookahead_threads=2/sliced_threads=0/nr=0/decimate=0/interlaced=0/bluray_compat=0/constrained_intra=0/bframes=3/b_pyramid=2/b_adapt=2/b_bias=0/direct=3/weightb=1/open_gop=0/weightp=2/keyint=240/keyint_min=23/scenecut=40/intra_refresh=0/rc_lookahead=40/rc=2pass/mbtree=1/bitrate=1500/ratetol=1.0/qcomp=0.60/qpmin=0/qpmax=69/qpstep=4/cplxblur=20.0/qblur=0.5/vbv_maxrate=10000/vbv_bufsize=10000/nal_hrd=none/filler=0/ip_ratio=1.40/aq=1:0.90
    Encoded date : UTC 2016-08-13 09:03:13
    Tagged date : UTC 2016-08-13 09:04:52
    Menus : 5
    Audio #1
    ID : 2
    Format : AAC
    Format/Info : Advanced Audio Codec
    Format profile : LC
    Codec ID : 40
    Duration : 22 min
    Source duration : 22 min
    Bit rate mode : Variable
    Bit rate : 128 kb/s
    Maximum bit rate : 130 kb/s
    Channel(s) : 2 channels
    Channel positions : Front: L R
    Sampling rate : 48.0 kHz
    Frame rate : 46.875 FPS (1024 spf)
    Compression mode : Lossy
    Stream size : 21.0 MiB (7%)
    Source stream size : 21.0 MiB (7%)
    Language : Russian
    Default : Yes
    Alternate group : 1
    Encoded date : UTC 2016-08-13 09:03:13
    Tagged date : UTC 2016-08-13 09:04:52
    Audio #2
    ID : 3
    Format : AAC
    Format/Info : Advanced Audio Codec
    Format profile : LC
    Codec ID : 40
    Duration : 22 min
    Source duration : 22 min
    Bit rate mode : Constant
    Bit rate : 128 kb/s
    Channel(s) : 2 channels
    Channel(s)_Original : 1 channel
    Channel positions : Front: C
    Sampling rate : 48.0 kHz
    Frame rate : 46.875 FPS (1024 spf)
    Compression mode : Lossy
    Stream size : 21.0 MiB (7%)
    Source stream size : 21.0 MiB (7%)
    Language : English
    Default : No
    Alternate group : 1
    Encoded date : UTC 2016-08-13 09:03:13
    Tagged date : UTC 2016-08-13 09:04:52
    Text
    ID : 4
    Format : Timed Text
    Muxing mode : sbtl
    Codec ID : tx3g
    Duration : 22 min
    Bit rate mode : Variable
    Bit rate : 99 b/s
    Stream size : 16.5 KiB (0%)
    Language : Russian
    Default : Yes
    Forced : No
    Alternate group : 2
    Encoded date : UTC 2016-08-13 09:03:13
    Tagged date : UTC 2016-08-13 09:04:52
    Menu
    ID : 5
    Codec ID : text
    Duration : 22 min
    Language : English
    Encoded date : UTC 2016-08-13 09:04:52
    Tagged date : UTC 2016-08-13 09:04:52
    Bit rate mode : CBR
    Menu For : 1
    Duration_FirstFrame : 1369796
    00:00:00.000 : Chapter 01
    00:22:52.167 : Chapter 02


    Скриншоты для ознакомления




    Атомный Человек против Супермена/Atom Man vs. Superman (1950) DVDRip [H.264] (сезон 1, серии 1-15 из 15) [MP4|640x480@658x480]
    загрузка...
    Рейтинг →
     (голосов: 1, оценка 3/5, голосовать можно 1 раз )

    Другие торренты по теме:

  • Процесс. Атомный шантаж со стороны Украины: Почему молчит Запад (02.04.2016) SATRip
  • Атомный ребёнок / The Atomic kid (1954) DVDRip
  • Атомный Иван (2012) WEB-DL [H.264 / 1080p-LQ]


    • Комментарии (0):

      Информация

      Информация

        Посетители, находящиеся в группе Гости, не могут оставлять комментарии в данной новости.

        ↓ Меню




        ↓ Опрос

        Вы добавили сайт в закладки?
        Да
        Нет


        Top 10 за месяц (КПК и мобильные)