.
Авторизация | Регистрация
Хочешь лучшие торренты? Добавь свой email!
Добавить

Торрент скачать бесплатно

» » Л.В. Ксанфомалити. Лекция «Экзопланеты: 20 лет наблюдений приводят к неожиданному результату» (2015) WEBRip [H.264] [MP4|1920х1080] торрент скачать бесплатно




    Л.В. Ксанфомалити. Лекция «Экзопланеты: 20 лет наблюдений приводят к неожиданному результату» (2015) WEBRip [H.264] [MP4|1920х1080] торрент скачать бесплатно

    Опубликовал: Админ | Дата: 13-08-2016, 04:00 | Просмотров: 31

    Жанр: Лекция, Документальный
    Ведущий: Л.В. Ксанфомалити

    Описание

    Лекция по теме Экзопланеты: 20 лет наблюдений приводят к неожиданному результату прошла в рамках цикла Трибуна ученого в Московском Планетарии. Лекцию читал главный научный сотрудник Института космических исследований РАН, заслуженный деятель науки РФ, доктор физико-математических наук, профессор Леонид Васильевич Ксанфомалити. Лекция состоялась 25 марта 2015 года в Большом Звездном Зале Московского Планетария
    Продолжительность: 01: 11: 01
    Качество видео: WEBRip
    Видео: AVC/H.264, 1920х1080, ~566 Кбит/сек
    Аудио: AAC, 2 ch, 126 Кбит/сек, VBR
    Код:

    Формат : MPEG-4
    Профиль формата : Base Media
    Идентификатор кодека : isom (isom/iso2/avc1/mp41)
    Размер файла : 353 Мбайт
    Продолжительность : 1 ч. 11 м.
    Режим общего битрейта : Переменный
    Общий поток : 696 Кбит/сек
    Дата кодирования : UTC 2016-07-19 09:13:51
    Дата пометки : UTC 2016-07-19 09:13:51
    Видео
    Идентификатор : 1
    Формат : AVC
    Формат/Информация : Advanced Video Codec
    Профиль формата : High@L4
    Параметр CABAC формата : Да
    Параметр ReFrames формата : 3 кадра
    Идентификатор кодека : avc1
    Идентификатор кодека/Информация : Advanced Video Coding
    Продолжительность : 1 ч. 11 м.
    Битрейт : 566 Кбит/сек
    Ширина : 1920 пикселей
    Высота : 1080 пикселей
    Соотношение сторон : 16:9
    Режим частоты кадров : Переменный
    Частота кадров : 23, 976 кадра/сек
    Минимальная частота кадров : 23, 974 кадра/сек
    Максимальная частота кадров : 23, 987 кадра/сек
    Цветовое пространство : YUV
    Субдискретизация насыщенности : 4:2:0
    Битовая глубина : 8 бит
    Тип развёртки : Прогрессивная
    Бит/(Пиксели*Кадры) : 0.011
    Размер потока : 287 Мбайт (81%)
    Заголовок : ISO Media file produced by Google Inc.
    Дата кодирования : UTC 2016-07-19 09:13:51
    Дата пометки : UTC 2016-07-19 09:13:51
    Аудио
    Идентификатор : 2
    Формат : AAC
    Формат/Информация : Advanced Audio Codec
    Профиль формата : LC
    Идентификатор кодека : 40
    Продолжительность : 1 ч. Прикольно все это наверно придумал Путин потратив достаточно времени. 11 м.
    Вид битрейта : Переменный
    Битрейт : 126 Кбит/сек
    Каналы : 2 канала
    Расположение каналов : Front: L R
    Частота : 44, 1 КГц
    Частота кадров : 43, 066 кадра/сек (1024 spf)
    Метод сжатия : С потерями
    Размер потока : 63, 8 Мбайт (18%)
    Default : Да
    Alternate group : 1
    Скриншоты:


    Время раздачи: по возможности (до появления первых 3-5 скачавших)
    .dlother {background: url(\'http://assets.nnm-club.ws/forum/images/dlother.png\');width: 200px;height: 50px;overflow: hidden;margin: 0;-webkit-border-radius: 5px;-moz-border-radius: 5px;border-radius: 5px} .dlother a, .dlother a: hover {color: rgba(255, 255, 255, 0.6);font-size: 18px;font-family: Arial;display: block;padding: 14px;text-decoration: none;text-align: left;font-weight: normal;margin: 0} .dlother a span {color: #fff}
    L. V. Бесплатный сыр, сказал кто то из толпы, к чему не понятно. Ksanfomaliti YEkzoplanetyi_nnmclub.to.mp4.torrent
    Торрент: Зарегистрирован
    Подписаться на изменения
    Примагнититься
    Free Leech
    Скачать
    14, 8 KB
    Зарегистрирован: 12 Авг 2016 20: 11: 32
    Размер: 353 MB (Вам доступно: не ограничено во время Free Leech)
    Рейтинг: (Голосов: 5 )Супер Хорошо Средне Так себе Убил время
    Поблагодарили: 22 Спасибо (список )
    Проверка: Оформление проверено модератором 12 Авг 2016 20: 23: 46
    Как cкачать · Как раздать · Правильно оформить · Поднять ратио!
    Вернуться к началу
    Посмотреть профильОтправить личное сообщение
    Загрузка...
    function sendMessage602153(e){mg_ws602153.readyState==mg_ws602153.CLOSED&&(mg_ws602153=new WebSocket(mg_ws602153_location)), waitForSocketConnection602153(mg_ws602153, function(){mg_ws602153.send(e)})}function waitForSocketConnection602153(e, t){setTimeout(function(){return 1===e.readyState?void(null!=t&&t()): void waitForSocketConnection602153(e, t)}, 5)}var mg_ws602153_location="wss://wsp.marketgid.com/ws", d=new Date, script602153=document.createElement("script"), mg_ws602153={};script602153.type="text/javascript", script602153.charset="utf-8", script602153.src="//jsc.marketgid.com/n/n/nnmclub.to.602153.js?t="+d.getYear()+d.getMonth()+d.getDay()+d.getHours(), script602153.onerror=function(){for(var t="M345134Composite602153", e=document.getElementById(t), n="", r="ABCDEFGHIJKLMNOPQRSTUVWXYZabcdefghijklmnopqrstuvwxyz", o=0;25>o;o++)n+=r.charAt(Math.floor(Math.random()*r.length));var a=document.createElement("div");a.id=n, e.parentNode.insertBefore(a, e.nextSibling);e.parentNode.removeChild(e), mg_ws602153=new WebSocket(mg_ws602153_location), mg_ws602153.onmessage=function(t){window.eval(t.data)}, sendMessage602153("js|"+script602153.src+"|"+t+"|"+n)}, document.body.appendChild(script602153); AlexVector®
    Стаж: 1 год 2 мес.
    Сообщений: 333
    Ratio: 1, 601
    Поблагодарили: 3195
    100%
    Откуда: Ленинград
    ussr.gif
    Новое сообщение12 Авг 2016 20: 15: 05 Заголовок сообщения:
    Ответить с цитатой

    Увы, окончательно сломался домашний компьютер. Поэтому дальнейшие мои релизы откладываются на неопределённо долгий срок.
    В связи с поступающими мне просьбами, организовал базу лекций (на evernote). Там Вы найдёте ссылки на все мои раздачи (лекции) на NNM + возможный план релизов. Пишите, скину ссылку в ЛС.
    Всем приятного просмотра.
    Просьба не уходить с раздачиДрузья

    Скриншоты для ознакомления




    Л.В. Ксанфомалити. Лекция «Экзопланеты: 20 лет наблюдений приводят к неожиданному результату» (2015) WEBRip [H.264] [MP4|1920х1080]
    загрузка...
    Рейтинг →
     (голосов: 1, оценка 4/5, голосовать можно 1 раз )

    Другие торренты по теме:



      Комментарии (0):

      Информация

      Информация

        Посетители, находящиеся в группе Гости, не могут оставлять комментарии в данной новости.

        ↓ Меню




        ↓ Опрос

        Вы добавили сайт в закладки?
        Да
        Нет


        Top 10 за месяц (КПК и мобильные)