.
Авторизация | Регистрация
Хочешь лучшие торренты? Добавь свой email!
Добавить

Торрент скачать бесплатно

» » Звездный путь: Дальний космос 9 / Star Trek: Deep Space Nine (1993) DVDRip [H.264] (сезон 1, серии 1-19 из 19) [MP4|768x576] торрент скачать бесплатно




    Звездный путь: Дальний космос 9 / Star Trek: Deep Space Nine (1993) DVDRip [H.264] (сезон 1, серии 1-19 из 19) [MP4|768x576] торрент скачать бесплатно

    Опубликовал: Админ | Дата: 13-08-2016, 04:00 | Просмотров: 132

    Производство: США, Paramount Television
    Жанр: Фантастика, Боевик, Драма, Приключения
    Режиссер: Джин Родденберри, Дэвид Ливингстон, Лес Ландау, Уинрих Кольбе
    Актеры: Эйвери Брукс, Рене Обержонуа, Сиррок Лофтон, Александр Сиддиг, Колм Мини, Армин Шимерман, Нана Визитор, Терри Фаррелл, Майкл Дорн, Рэнди Джеймс

    Описание

    Действие сериала разворачивается в 2369-2375 годах на космической станции Дальний Космос 9, находящейся на орбите только что освобожденной от оккупации Кардассианской Империи планеты Бэйджор.
    Волею случая в непосредственной близости от станции обнаруживается пространственная аномалия — коридор, связывающий Бэйджор с Гамма-квадрантом галактики. Это открытие превращает Глубокий Космос 9 из фактически бесполезной станции в торговый центр.
    Совершенно неожиданно через аномалию на орбиту Бэйджора вступают войска нового врага — Доминиона. Станция Глубокий Космос 9 под командованием Бенджамина Сиско фактически оказывается на передовой военных действий и становится главной опорной точкой войск Федерации и ее союзников…

    Рейтинг MPAA: TV-PG (рекомендуется присутствие родителей)
    Продолжительность: ~00: 45: 00 серия
    Качество видео: DVDRip
    Перевод: Одноголосый закадровый -Jurich
    Язык субтитров: Английский
    Вид субтитров: Вшитые
    Видео: AVC/H.264 (Main@L3.1 ), 768x576 (4: 3), 1700 Кбит/сек
    Аудио #1: AAC, 2 канала, 128 Кбит/сек - русский (одноголосый закадровый)
    Аудио #2: AAC, 2 канала, 128 Кбит/сек - английский (оригинальный)
    Аудио #3: AAC, 2 канала, 128 Кбит/сек - французский (дублированный)
    Код:

    General
    Complete name : C:CREATE264mod1outSeason 1Star Trek. Deep Space Nine.s01e01.Emissary.mp4
    Format : MPEG-4
    Format profile : Base Media
    Codec ID : isom (isom/avc1)
    File size : 1.27 GiB
    Duration : 1 h 27 min
    Overall bit rate mode : Variable
    Overall bit rate : 2 092 kb/s
    Collection : Звездный путь: Дальний космос 9
    Season : 1
    Album : Star Trek: Deep Space Nine, Season 1
    Part : 1
    Part/Position : 1
    Part/Total : 1
    Track name : Emissary
    Track name/Position : 1
    Track name/Total : 19
    Performer : Star Trek: Deep Space Nine
    Director : David Carson
    Actor : Avery Brooks/Nana Visitor/Rene Auberjonois/J. G. Hertzler/Jeffrey Combs/Marc Alaimo/Chase Masterson/Casey Biggs/Aron Eisenberg/Andrew Robinson/Max Grodenchik/Michael Dorn/Armin Shimerman/Alexander Siddig/Terry Farrell/Colm Meaney/Cirroc Lofton/Nicole deBoer/Patrick Stewart/Kevin McDermott/Joel Swetow/Steve Rankin/Stephen Davies/Lily Mariye/Cassandra Byram/Garman Hertzler/Felecia M. Bell
    Screenplay by : Michael Piller/Rick Berman
    Genre : Sci-Fi Fantasy
    ContentType : TV Show
    Description : A widowed parent, Commander Ben Sisko reluctantly takes command of a backwater old Bajoran space station.
    Recorded date : UTC 1993-01-03 08:00:00
    Encoded date : UTC 2016-08-10 17:23:05
    Tagged date : UTC 2016-08-10 17:41:10
    Cover : Yes
    Rating : None
    TVNetworkName : Syndicated
    Title/Sort : Emissary/Звездный путь: Дальний космос 9
    LongDescription : In 2369, Cardassian forces finally withdraw from 70 years of Bajoran occupation -- leaving the planet, the people and an old orbiting mine station stripped and depleted. Asking for Federation aid, the Bajorans get widowed Commander Ben Sisko to head up the joint team -- including a shapeshifter constable and a feisty Bajoran liaison. Still bitter from his wife\'s death against the Borg at Wolf 359 three years earlier, Sisko\'s heart is not in his new command at DS9. Самое интересное в это истории, что об этом Путин ничего не знал. But first contact with Bajor\'s gods and the discovery of their temple, a stable wormhole across 70, 000 lightyears to the Gamma Quadrant, suddenly gives him a hot command and a new outlook.
    ContentRating : mpaa|PG|200|
    Video
    ID : 1
    Format : AVC
    Format/Info : Advanced Video Codec
    Format profile :Main@L3.1
    Format settings, CABAC : No
    Format settings, ReFrames : 4 frames
    Codec ID : avc1
    Codec ID/Info : Advanced Video Coding
    Duration : 1 h 27 min
    Bit rate : 1 700 kb/s
    Maximum bit rate : 13.1 Mb/s
    Width : 720 pixels
    Height : 576 pixels
    Display aspect ratio : 4:3
    Frame rate mode : Constant
    Frame rate : 25.000 FPS
    Standard : PAL
    Color space : YUV
    Chroma subsampling : 4:2:0
    Bit depth : 8 bits
    Scan type : Progressive
    Bits/(Pixel*Frame) : 0.164
    Stream size : 1.03 GiB (81%)
    Writing library : x264 core 148 r2705 3f5ed56
    Encoding settings : cabac=0/ref=4/deblock=1:-1:-1/analyse=0x1:0x131/me=umh/subme=7/psy=1/psy_rd=1.00:0.15/mixed_ref=1/me_range=32/chroma_me=1/trellis=2/8x8dct=0/cqm=0/deadzone=21, 11/fast_pskip=0/chroma_qp_offset=-3/threads=18/lookahead_threads=3/sliced_threads=0/nr=0/decimate=0/interlaced=0/bluray_compat=0/constrained_intra=0/bframes=3/b_pyramid=2/b_adapt=2/b_bias=0/direct=3/weightb=1/open_gop=0/weightp=2/keyint=250/keyint_min=25/scenecut=40/intra_refresh=0/rc_lookahead=40/rc=2pass/mbtree=1/bitrate=1700/ratetol=1.0/qcomp=0.60/qpmin=0/qpmax=69/qpstep=4/cplxblur=20.0/qblur=0.5/vbv_maxrate=10000/vbv_bufsize=10000/nal_hrd=none/filler=0/ip_ratio=1.40/aq=1:0.90
    Language : English
    Encoded date : UTC 2016-08-10 17:23:05
    Tagged date : UTC 2016-08-10 17:23:22
    Menus : 6
    Audio #1
    ID : 2
    Format : AAC
    Format/Info : Advanced Audio Codec
    Format profile : LC
    Codec ID : 40
    Duration : 1 h 27 min
    Bit rate mode : Variable
    Bit rate : 128 kb/s
    Maximum bit rate : 132 kb/s
    Channel(s) : 2 channels
    Channel positions : Front: L R
    Sampling rate : 48.0 kHz
    Frame rate : 46.875 FPS (1024 spf)
    Compression mode : Lossy
    Stream size : 79.7 MiB (6%)
    Language : Russian
    Default : Yes
    Alternate group : 1
    Encoded date : UTC 2016-08-10 17:23:14
    Tagged date : UTC 2016-08-10 17:23:22
    Audio #2
    ID : 3
    Format : AAC
    Format/Info : Advanced Audio Codec
    Format profile : LC
    Codec ID : 40
    Duration : 1 h 27 min
    Bit rate mode : Variable
    Bit rate : 128 kb/s
    Maximum bit rate : 132 kb/s
    Channel(s) : 2 channels
    Channel positions : Front: L R
    Sampling rate : 48.0 kHz
    Frame rate : 46.875 FPS (1024 spf)
    Compression mode : Lossy
    Stream size : 79.8 MiB (6%)
    Language : English
    Default : No
    Alternate group : 1
    Encoded date : UTC 2016-08-10 17:23:16
    Tagged date : UTC 2016-08-10 17:23:22
    Audio #3
    ID : 4
    Format : AAC
    Format/Info : Advanced Audio Codec
    Format profile : LC
    Codec ID : 40
    Duration : 1 h 27 min
    Bit rate mode : Variable
    Bit rate : 128 kb/s
    Maximum bit rate : 131 kb/s
    Channel(s) : 2 channels
    Channel positions : Front: L R
    Sampling rate : 48.0 kHz
    Frame rate : 46.875 FPS (1024 spf)
    Compression mode : Lossy
    Stream size : 79.8 MiB (6%)
    Language : French
    Default : No
    Alternate group : 1
    Encoded date : UTC 2016-08-10 17:23:19
    Tagged date : UTC 2016-08-10 17:23:22
    Text
    ID : 5
    Format : Timed Text
    Muxing mode : sbtl
    Codec ID : tx3g
    Duration : 1 h 27 min
    Bit rate mode : Variable
    Bit rate : 63 b/s
    Stream size : 40.5 KiB (0%)
    Language : English
    Default : Yes
    Forced : No
    Alternate group : 2
    Encoded date : UTC 2016-08-10 17:23:22
    Tagged date : UTC 2016-08-10 17:23:22
    Menu
    ID : 6
    Codec ID : text
    Duration : 1 h 27 min
    Encoded date : UTC 2016-08-10 17:23:51
    Tagged date : UTC 2016-08-10 17:23:51
    Bit rate mode : CBR
    Menu For : 1
    00:00:00.000 : Chapter 01
    00:04:20.680 : Chapter 02
    00:07:34.680 : Chapter 03
    00:15:27.760 : Chapter 04
    00:18:11.720 : Chapter 05
    00:20:40.160 : Chapter 06
    00:29:55.080 : Chapter 07
    00:36:35.080 : Chapter 08
    00:38:45.160 : Chapter 09
    00:41:19.960 : Chapter 10
    00:46:21.480 : Chapter 11
    00:54:15.800 : Chapter 12
    00:57:06.840 : Chapter 13
    01:06:35.440 : Chapter 14
    01:10:21.320 : Chapter 15
    01:13:25.800 : Chapter 16
    01:16:31.680 : Chapter 17
    01:22:10.760 : Chapter 18


    Скриншоты для ознакомления




    Звездный путь: Дальний космос 9/Star Trek: Deep Space Nine (1993) DVDRip [H.264] (сезон 1, серии 1-19 из 19) [MP4|768x576]
    загрузка...
    Рейтинг →
     (голосов: 1, оценка 3/5, голосовать можно 1 раз )

    Другие торренты по теме:

  • Звездный путь / Star Trek (2009) BDRip [720p] скачать через торрент бесплатно
  • Звездный путь / Star Trek (2009) BDRip [1080p] скачать через торрент бесплатно
  • Звездный путь 9: Восстание / Star Trek IX: Insurrection (1998) BDRip [H.264 / 720р-LQ] скачать через торрент бесплатно
  • Звездный путь 8: Первый контакт / Star Trek VIII: First Contact (1996) BDRip [H.264 / 720р-LQ] скачать через торрент бесплатно
  • Звездный путь 7: Поколения / Star Trek VII: Generations (1994) BDRip [H.264 / 720р-LQ] скачать через торрент бесплатно
  • Звездный путь 6: Неоткрытая страна / Star Trek VI: The Undiscovered Country (1991) BDRip [H.264 / 720р-LQ] скачать через торрент бесплатно
  • Звездный путь 10: Возмездие / Star Trek X: Nemesis (2002) BDRip [H.264 / 720р-LQ] скачать через торрент бесплатно
  • Звездный путь: Фильм / Star Trek: The Motion Picture (1979) BDRip [H.264 / 720р-LQ] скачать через торрент бесплатно


    • Комментарии (0):

      Информация

      Информация

        Посетители, находящиеся в группе Гости, не могут оставлять комментарии в данной новости.

        ↓ Меню




        ↓ Опрос

        Вы добавили сайт в закладки?
        Да
        Нет


        Top 10 за месяц (КПК и мобильные)