.
Авторизация | Регистрация
Хочешь лучшие торренты? Добавь свой email!
Добавить

Торрент скачать бесплатно

» » Очень странные дела / Загадочные события / Stranger Things (2016) WEBRip [H.264] (сезон 1, серии 1-6 из 8) LostFilm [MP4|1280x720] торрент скачать бесплатно




    Очень странные дела / Загадочные события / Stranger Things (2016) WEBRip [H.264] (сезон 1, серии 1-6 из 8) LostFilm [MP4|1280x720] торрент скачать бесплатно

    Опубликовал: Админ | Дата: 7-08-2016, 04:05 | Просмотров: 72

    Производство: США/21 Laps Entertainment
    Жанр: Триллер, Драма, Ужасы
    Режиссер: Мэтт Даффер, Росс Даффер, Шон Леви
    Продюсер: Дэн Коэн, Джастин Добл, Мэтт Даффер
    Актеры: Вайнона Райдер, Дэвид Харбор, Милли Бобби Браун, Калеб МакЛафлин, Ной Шнапп, Наталия Дайер, Чарли Хитон, Мэттью Модайн и др.

    Описание

    Главное действие нового телевизионного сериала разворачивается в 80-х годах на территории тихого провинциального города. Благоприятное течение местной жизни нарушает загадочное исчезновение подростка по имени Уилл. Выяснить обстоятельства дела, полны решимости родные мальчика и местный шериф. Также события затрагивают лучшего друга Уилла – Майка. Он начинает собственное расследование, в процессе которого встречает группу людей со сверхспособностями. Теперь Майк уверен, что близок к разгадке, однако для этого ему предстоит оказаться в эпицентре ожесточенной битвы потусторонних сил.

    Продолжительность: ~00: 50: 00 серия
    Качество видео: WEBRip 720p
    Перевод: Многоголосый закадровый, профессиональный -LostFilm
    Реклама: присутствует заставка и логотип LostFilm
    Видео: AVC/H.264 (High@L4.1 ), 1280x720 (16: 9), ~4000 Кбит/сек
    Аудио: AAC, 2 канала, 265 Кбит/сек - русский (многоголосый закадровый)
    Код:
    General
    Complete name : D:Загадочные события (сезон 1) (Stranger Things) (2016).WEBRip.720p.LostFilmStranger.Things.S01E03.720p.WEB.rus.LostFilm.TV.mp4
    Format : MPEG-4
    Format profile : Base Media
    Codec ID : isom (isom)
    File size : 1.51 GiB
    Duration : 50 min
    Overall bit rate mode : Variable
    Overall bit rate : 4 251 kb/s
    Collection : Загадочные события
    Season : 1
    Album : Загадочные события, Сезон 1
    Album/Performer : Загадочные события
    Part : 3
    Part/Position : 1
    Track name : Часть третья. Рождественские огни
    Track name/Position : 3
    Performer : Загадочные события
    Genre : Sci-Fi Fantasy
    ContentType : TV Show
    Recorded date : 2016
    Encoded date : UTC 2016-07-26 14:35:55
    Tagged date : UTC 2016-07-26 14:35:55
    Writing application : Yamb 2.1.0.0 [http://yamb.unite-video.com]/LostCoder
    Copyright : LostFilm.TV (c)
    Cover : Yes
    Comment : В маленьком провинциальном Хоукинсе никогда не случалось ничего экстраординарного, жизнь текла своим чередом. Но когда при очень странных обстоятельствах пропал один из обитателей этого райского местечка, никто, кроме его мамы, всерьез не обеспокоился.
    Part_ID : 103
    Video
    ID : 1
    Format : AVC
    Format/Info : Advanced Video Codec
    Format profile :High@L4.1
    Format settings, CABAC : No
    Format settings, ReFrames : 4 frames
    Codec ID : avc1
    Codec ID/Info : Advanced Video Coding
    Duration : 50 min
    Bit rate : 4 000 kb/s
    Maximum bit rate : 6 227 kb/s
    Width : 1 280 pixels
    Height : 720 pixels
    Display aspect ratio : 16:9
    Frame rate mode : Constant
    Frame rate : 23.976 (24000/1001) FPS
    Original frame rate : 23.976 (23976/1000) FPS
    Color space : YUV
    Chroma subsampling : 4:2:0
    Bit depth : 8 bits
    Scan type : Progressive
    Bits/(Pixel*Frame) : 0.181
    Stream size : 1.42 GiB (94%)
    Title : Imported with GPAC 0.4.6-DEV (internal rev. О таком странном сюжете не догадывалась даже Тимошенко. 5)
    Writing library : x264 core 112 r1834 a51816a
    Encoding settings : cabac=0/ref=3/deblock=1:0:0/analyse=0x3:0x113/me=hex/subme=7/psy=1/psy_rd=1.00:0.00/mixed_ref=1/me_range=16/chroma_me=1/trellis=1/8x8dct=1/cqm=0/deadzone=21, 11/fast_pskip=1/chroma_qp_offset=-2/threads=12/sliced_threads=0/nr=0/decimate=1/interlaced=0/constrained_intra=0/bframes=4/b_pyramid=2/b_adapt=1/b_bias=0/direct=1/weightb=1/open_gop=0/weightp=2/keyint=250/keyint_min=25/scenecut=40/intra_refresh=0/rc_lookahead=40/rc=2pass/mbtree=1/bitrate=4000/ratetol=1.0/qcomp=0.60/qpmin=0/qpmax=51/qpstep=4/cplxblur=20.0/qblur=0.5/vbv_maxrate=5000/vbv_bufsize=2000/ip_ratio=1.40/aq=1:1.00/nal_hrd=none
    Encoded date : UTC 2016-07-26 12:41:40
    Tagged date : UTC 2016-07-26 14:36:18
    Audio
    ID : 2
    Format : AAC
    Format/Info : Advanced Audio Codec
    Format profile : LC
    Codec ID : 40
    Duration : 50 min
    Bit rate mode : Variable
    Bit rate : 265 kb/s
    Maximum bit rate : 356 kb/s
    Channel(s) : 2 channels
    Channel positions : Front: L R
    Sampling rate : 48.0 kHz
    Frame rate : 46.875 FPS (1024 spf)
    Compression mode : Lossy
    Stream size : 96.4 MiB (6%)
    Encoded date : UTC 2016-07-26 14:36:15
    Tagged date : UTC 2016-07-26 14:36:18


    Скриншоты для ознакомления




    Очень странные дела/Загадочные события/Stranger Things (2016) WEBRip [H.264] (сезон 1, серии 1-6 из 8) LostFilm [MP4|1280x720]
    загрузка...
    Рейтинг →
     (голосов: 1, оценка 5/5, голосовать можно 1 раз )

    Другие торренты по теме:

  • Очень странные дела / Крайне странные события / Загадочные события / Stranger Things (2016) WEBRip [H.264 / 2160p] (сезон 1, серии 1-8 из 8) Jaskier, NewStudio
  • Очень странные дела / Загадочные события / Stranger Things (2016) WEBRip [H.264 / 720p -LQ] (сезон 1, серии 1-3 из 8) NewStudio (обновляемая)
  • Очень странные дела / Загадочные события / Stranger Things (2016) WEBRip (сезон 1, серии 1-3 из 8) NewStudio (обновляемая)
  • Очень странные дела / Stranger Things (2016) WEBRip [H.264 / 720p-LQ] (сезон 1, серии 1-8 из 8) ColdFilm
  • Очень странные дела / Stranger Things (2016) WEB [H.264 / 1080p-LQ] (сезон 1, серии 1-3 из 8) NewStudio (обновляемая)
  • Очень странные дела / Загадочные события / Stranger Things (2016) WEBRip (сезон 1, серии 1 из 8) LostFilm (обновляемая)
  • Очень странные дела / Загадочные события / Stranger Things (2016) WEBRip [H.264 / 1080p-LQ] (сезон 1, серии 1 из 8) LostFilm (обновляемая)
  • Очень странные дела / Загадочные события / Stranger Things (2016) WEBRip [H.264 / 1080p] (сезон 1, серии 1 из 8) LostFilm (обновляемая)


    • Комментарии (0):

      Информация

      Информация

        Посетители, находящиеся в группе Гости, не могут оставлять комментарии в данной новости.

        ↓ Меню




        ↓ Опрос

        Вы добавили сайт в закладки?
        Да
        Нет


        Top 10 за месяц (КПК и мобильные)