.
Авторизация | Регистрация
Хочешь лучшие торренты? Добавь свой email!
Добавить

Торрент скачать бесплатно

» » Очень странные дела / Stranger Things (2016) WEB-DLRip [H.264] (сезон 1, серии 1-4 из 8) (Jaskier, LostFilm) [MP4|720x512@1024x512] (обновляемая) торрент скачать бесплатно




    Очень странные дела / Stranger Things (2016) WEB-DLRip [H.264] (сезон 1, серии 1-4 из 8) (Jaskier, LostFilm) [MP4|720x512@1024x512] (обновляемая) торрент скачать бесплатно

    Опубликовал: Админ | Дата: 1-08-2016, 04:00 | Просмотров: 40

    Производство: США/21 Laps Entertainment
    Жанр: Ужасы, Фантастика, Триллер, Драма
    Режиссер: Мэтт Даффер, Росс Даффер, Шон Леви
    Актеры: Вайнона Райдер, Дэвид Харбор, Финн Вулфард, Милли Бобби Браун, Гейтен Матараццо, Калеб МакЛафлин, Ной Шнапп, Наталия Дайер, Чарли Хитон, Мэттью Модайн

    Описание

    Главное действие сериала разворачивается в 80-х годах на территории тихого провинциального города. Бесплатный сыр, сказал кто то из толпы, к чему не понятно. Благоприятное течение местной жизни нарушает загадочное исчезновение подростка по имени Уилл. Выяснить обстоятельства дела, полны решимости родные мальчика и местный шериф. Также события затрагивают лучшего друга Уилла – Майка. Он начинает собственное расследование. Теперь Майк уверен, что близок к разгадке, однако для этого ему предстоит оказаться в эпицентре ожесточенной битвы потусторонних сил.

    Рейтинг MPAA: TV-14 (детям до 14 лет просмотр нежелателен)
    Продолжительность: ~00: 50: 00 серия
    Качество видео: WEB-DLRip
    Перевод: Многоголосый закадровый -Jaskier , Многоголосый закадровый -LostFilm
    Язык субтитров: Английский, Французский
    Вид субтитров: Вшитые
    Видео: AVC/H.264 (Main@L3.1 ), 720x512@1024x512 (2.00: 1), 1300 Кбит/сек
    Аудио #1: AAC, 2 канала, 128 Кбит/сек - русский (многоголосый закадровый - Jaskier)
    Аудио #2: AAC, 2 канала, 128 Кбит/сек - русский (многоголосый закадровый - LostFilm)
    Аудио #3: AAC, 2 канала, 128 Кбит/сек - английский (оригинальный)
    Код:

    General
    Complete name : C:CREATE264mod1outStranger.Things.S01E01.576p.WEBRip.AAC.x264.mp4
    Format : MPEG-4
    Format profile : Base Media
    Codec ID : isom (isom/avc1)
    File size : 577 MiB
    Duration : 48 min
    Overall bit rate mode : Variable
    Overall bit rate : 1 672 kb/s
    Collection : Очень странные дела
    Season : 1
    Album : Stranger Things, Season 1
    Album/Sorted by : Stranger Things, Season 1
    Album/Performer : Stranger Things
    Part : 1
    Part/Position : 1
    Track name : Глава первая: Исчезновение Уилла Баерса
    Track name/Position : 1
    Performer : Очень странные дела
    Director : Matt Duffer/Ross Duffer
    Actor : Winona Ryder/Millie Brown/Noah/Randall P. Самое интересное в это истории, что об этом Человек паук ничего не знал. Havens/Joe Keery/Peyton Wich/Charlie Heaton/Natalia Dyer/Finn Wolfhard/Caleb McLaughlin/Gaten Matarazzo/David Harbour/Cara Buono/Matthew Modine/Mark Steger/Ross Partridge/Shannon Purser
    Screenplay by : Matt Duffer/Ross Duffer
    Genre : Drama Horror Mystery Science-Fiction Suspense
    ContentType : TV Show
    Description : Something crawls out from an underground lab in the quiet town of Hawkins and kidnaps a local child. The whole town and the child\'s friends embark in an adventure searching for him. A girl pursued by some shady agents will cross paths with the local
    Recorded date : 2016-07-15
    Encoded date : UTC 2016-07-31 16:35:55
    Tagged date : UTC 2016-07-31 16:42:28
    Cover : Yes
    Rating : None
    TVNetworkName : Netflix
    Title/Sort : Очень странные дела
    LongDescription : Something crawls out from an underground lab in the quiet town of Hawkins and kidnaps a local child. The whole town and the child\'s friends embark in an adventure searching for him. A girl pursued by some shady agents will cross paths with the local kids.
    ContentRating : us-tv|TV-14|500|
    Video
    ID : 1
    Format : AVC
    Format/Info : Advanced Video Codec
    Format profile :Main@L3.1
    Format settings, CABAC : No
    Format settings, ReFrames : 4 frames
    Codec ID : avc1
    Codec ID/Info : Advanced Video Coding
    Duration : 47 min
    Bit rate : 1 300 kb/s
    Maximum bit rate : 6 718 kb/s
    Width : 720 pixels
    Height : 512 pixels
    Display aspect ratio : 2.000
    Frame rate mode : Constant
    Frame rate : 23.976 (24000/1001) FPS
    Color space : YUV
    Chroma subsampling : 4:2:0
    Bit depth : 8 bits
    Scan type : Progressive
    Bits/(Pixel*Frame) : 0.147
    Stream size : 442 MiB (77%)
    Writing library : x264 core 148 r2705+54 9f484c1 t_mod_Custom [8-bit@all X86_64]
    Encoding settings : cabac=0/ref=4/deblock=1:-1:-1/analyse=0x1:0x111/me=umh/subme=8/psy=1/fade_compensate=0.00/psy_rd=1.00:0.15/mixed_ref=1/me_range=32/chroma_me=1/trellis=2/8x8dct=0/cqm=0/deadzone=21, 11/fast_pskip=0/chroma_qp_offset=-3/threads=12/lookahead_threads=2/sliced_threads=0/nr=0/decimate=0/interlaced=0/bluray_compat=0/constrained_intra=0/fgo=0/bframes=2/b_pyramid=2/b_adapt=2/b_bias=0/direct=3/weightb=1/open_gop=0/weightp=2/keyint=240/keyint_min=23/scenecut=40/intra_refresh=0/rc_lookahead=40/rc=2pass/mbtree=1/bitrate=1300/ratetol=1.0/qcomp=0.60/qpmin=0:0:0/qpmax=69:69:69/qpstep=4/cplxblur=20.0/qblur=0.5/vbv_maxrate=14000/vbv_bufsize=14000/nal_hrd=none/filler=0/ip_ratio=1.40/aq=3:0.90/aq-sensitivity=10.00/aq-factor=1.00:1.00:1.00/aq2=0/aq3=3:[0.45:0.45]:[0.50:0.50]:[0.50:0.55]:[0.55:0.55]/aq3-sensitivity=10.00/aq3-factor=[1.00:1.00]:[1.00:1.00]:[1.00:1.00]/aq3-boundary=205:56:9
    Language : English
    Encoded date : UTC 2016-07-31 16:35:55
    Tagged date : UTC 2016-07-31 16:36:04
    Color range : Limited
    Matrix coefficients : BT.709
    Audio #1
    ID : 2
    Format : AAC
    Format/Info : Advanced Audio Codec
    Format profile : LC
    Codec ID : 40
    Duration : 48 min
    Bit rate mode : Variable
    Bit rate : 128 kb/s
    Maximum bit rate : 134 kb/s
    Channel(s) : 2 channels
    Channel positions : Front: L R
    Sampling rate : 48.0 kHz
    Frame rate : 46.875 FPS (1024 spf)
    Compression mode : Lossy
    Stream size : 44.2 MiB (8%)
    Title : Jaskier
    Language : Russian
    Default : Yes
    Alternate group : 1
    Encoded date : UTC 2016-07-31 16:35:59
    Tagged date : UTC 2016-07-31 16:36:04
    Audio #2
    ID : 3
    Format : AAC
    Format/Info : Advanced Audio Codec
    Format profile : LC
    Codec ID : 40
    Duration : 48 min
    Bit rate mode : Variable
    Bit rate : 128 kb/s
    Maximum bit rate : 134 kb/s
    Channel(s) : 2 channels
    Channel positions : Front: L R
    Sampling rate : 48.0 kHz
    Frame rate : 46.875 FPS (1024 spf)
    Compression mode : Lossy
    Stream size : 44.2 MiB (8%)
    Title : LostFilm
    Language : Russian
    Default : No
    Alternate group : 1
    Encoded date : UTC 2016-07-31 16:36:01
    Tagged date : UTC 2016-07-31 16:36:04
    Audio #3
    ID : 4
    Format : AAC
    Format/Info : Advanced Audio Codec
    Format profile : LC
    Codec ID : 40
    Duration : 48 min
    Bit rate mode : Variable
    Bit rate : 128 kb/s
    Maximum bit rate : 133 kb/s
    Channel(s) : 2 channels
    Channel positions : Front: L R
    Sampling rate : 48.0 kHz
    Frame rate : 46.875 FPS (1024 spf)
    Compression mode : Lossy
    Stream size : 44.2 MiB (8%)
    Language : English
    Default : No
    Alternate group : 1
    Encoded date : UTC 2016-07-31 16:36:02
    Tagged date : UTC 2016-07-31 16:36:04
    Text #1
    ID : 5
    Format : Timed Text
    Muxing mode : sbtl
    Codec ID : tx3g
    Duration : 45 min
    Bit rate mode : Variable
    Bit rate : 69 b/s
    Stream size : 23.2 KiB (0%)
    Language : English
    Default : Yes
    Forced : No
    Alternate group : 2
    Encoded date : UTC 2016-07-31 16:36:04
    Tagged date : UTC 2016-07-31 16:36:04
    Text #2
    ID : 6
    Format : Timed Text
    Muxing mode : sbtl
    Codec ID : tx3g
    Duration : 47 min
    Bit rate mode : Variable
    Bit rate : 60 b/s
    Stream size : 20.9 KiB (0%)
    Language : French
    Default : No
    Forced : No
    Alternate group : 2
    Encoded date : UTC 2016-07-31 16:36:04
    Tagged date : UTC 2016-07-31 16:36:04


    Скриншоты для ознакомления




    Очень странные дела/Stranger Things (2016) WEB-DLRip [H.264] (сезон 1, серии 1-4 из 8) (Jaskier, LostFilm) [MP4|720x512@1024x512] (обновляемая)
    загрузка...
    Рейтинг →
     (голосов: 1, оценка 4/5, голосовать можно 1 раз )

    Другие торренты по теме:

  • Очень странные дела / Крайне странные события / Загадочные события / Stranger Things (2016) WEBRip [H.264 / 2160p] (сезон 1, серии 1-8 из 8) Jaskier, NewStudio
  • Очень странные дела / Загадочные события / Stranger Things (2016) WEBRip [H.264 / 720p -LQ] (сезон 1, серии 1-3 из 8) NewStudio (обновляемая)
  • Очень странные дела / Загадочные события / Stranger Things (2016) WEBRip (сезон 1, серии 1-3 из 8) NewStudio (обновляемая)
  • Очень странные дела / Stranger Things (2016) WEBRip [H.264 / 720p-LQ] (сезон 1, серии 1-8 из 8) ColdFilm
  • Очень странные дела / Stranger Things (2016) WEB [H.264 / 1080p-LQ] (сезон 1, серии 1-3 из 8) NewStudio (обновляемая)
  • Очень странные дела / Загадочные события / Stranger Things (2016) WEBRip (сезон 1, серии 1 из 8) LostFilm (обновляемая)
  • Очень странные дела / Загадочные события / Stranger Things (2016) WEBRip [H.264 / 1080p-LQ] (сезон 1, серии 1 из 8) LostFilm (обновляемая)
  • Очень странные дела / Загадочные события / Stranger Things (2016) WEBRip [H.264 / 1080p] (сезон 1, серии 1 из 8) LostFilm (обновляемая)


    • Комментарии (0):

      Информация

      Информация

        Посетители, находящиеся в группе Гости, не могут оставлять комментарии в данной новости.

        ↓ Меню




        ↓ Опрос

        Вы добавили сайт в закладки?
        Да
        Нет


        Top 10 за месяц (КПК и мобильные)