.
Авторизация | Регистрация
Хочешь лучшие торренты? Добавь свой email!
Добавить

Торрент скачать бесплатно

» » Руководство по выживанию от Купера Баррэта / Cooper Barretts Guide to Surviving Life (2016) WEB-DLRip [H.264] (сезон 1, серии 1-12 из 13) BaibaKo [MP4|720x400] торрент скачать бесплатно




    Руководство по выживанию от Купера Баррэта / Cooper Barretts Guide to Surviving Life (2016) WEB-DLRip [H.264] (сезон 1, серии 1-12 из 13) BaibaKo [MP4|720x400] торрент скачать бесплатно

    Опубликовал: Админ | Дата: 1-08-2016, 04:00 | Просмотров: 46

    Производство: США
    Жанр: комедия
    Режиссер: Джеймс Гриффитс
    Актеры: Линдон Смит, Джек Катмор-Скотт, Миган Рат, Чарли Сэкстон, Джеймс Эрл, Джастин Барта, Лиза Лапира и др.

    Описание

    Молодежная комедия о компании молодых парней, которые решают поселиться в одной квартире, делать только то, что хочется, и ни от кого не зависеть. Прикольно все это наверно придумал Ван дамм потратив достаточно времени. Правда, не все идет гладко: с завидной частотой друзья попадают в нелепые и даже опасные ситуации, но благодаря везению и взаимовыручке всегда каким-то образом из них выпутываются.

    Дата мировой премьеры: 3 января 2016
    Продолжительность: ~ 00: 22: 00 серия
    Качество видео: WEB-DLRip
    Перевод: Многоголосый закадровый, профессиональный -BaibaKo
    Реклама: присутствуют видео, аудио, текстовые вставки рекламы.
    Видео: AVC/H.264, 720x400 (16: 9), ~1536 Кбит/сек
    Аудио #1 Rus: AAC, 2 канала, 163 Кбит/сек - русский (многоголосый закадровый)
    Аудио #2 Eng: AAC, 2 канала, 163 Кбит/сек - английский (оригинальный)
    Код:

    Cooper.Barrett\'s.Guide.to.Surviving.Life.s01e01.WEB-DLRip.x264.Rus.Eng.BaibaKo.tv.mp4
    Format : MPEG-4
    Format profile : Base Media
    Codec ID : isom (isom)
    File size : 304 MiB
    Duration : 22 min
    Overall bit rate mode : Variable
    Overall bit rate : 1 866 kb/s
    Encoded date : UTC 2016-01-06 04:27:46
    Tagged date : UTC 2016-01-06 04:27:46
    Video
    ID : 1
    Format : AVC
    Format/Info : Advanced Video Codec
    Format profile : Baseline@L3
    Format settings, CABAC : No
    Format settings, ReFrames : 3 frames
    Codec ID : avc1
    Codec ID/Info : Advanced Video Coding
    Duration : 22 min
    Bit rate : 1 536 kb/s
    Maximum bit rate : 4 843 kb/s
    Width : 720 pixels
    Height : 400 pixels
    Display aspect ratio : 16:9
    Frame rate mode : Variable
    Frame rate : 23.976 (24000/1001) FPS
    Minimum frame rate : 23.974 FPS
    Maximum frame rate : 23.981 FPS
    Color space : YUV
    Chroma subsampling : 4:2:0
    Bit depth : 8 bits
    Scan type : Progressive
    Bits/(Pixel*Frame) : 0.222
    Stream size : 250 MiB (82%)
    Writing library : x264 core 142 r2479 dd79a61
    Encoding settings : cabac=0/ref=3/deblock=1:0:0/analyse=0x1:0x111/me=hex/subme=7/psy=1/psy_rd=1.00:0.00/mixed_ref=1/me_range=16/chroma_me=1/trellis=1/8x8dct=0/cqm=0/deadzone=21, 11/fast_pskip=1/chroma_qp_offset=-2/threads=12/lookahead_threads=2/sliced_threads=0/nr=0/decimate=1/interlaced=0/bluray_compat=0/constrained_intra=0/bframes=0/weightp=0/keyint=240/keyint_min=24/scenecut=40/intra_refresh=0/rc_lookahead=40/rc=2pass/mbtree=1/bitrate=1536/ratetol=1.0/qcomp=0.60/qpmin=0/qpmax=69/qpstep=4/cplxblur=20.0/qblur=0.5/vbv_maxrate=10000/vbv_bufsize=10000/nal_hrd=none/filler=0/ip_ratio=1.40/aq=1:1.00
    Encoded date : UTC 2036-02-06 06:28:16
    Tagged date : UTC 2016-01-06 04:27:51
    Color range : Limited
    Color primaries : BT.709
    Transfer characteristics : BT.709
    Matrix coefficients : BT.709
    Audio #1
    ID : 2
    Format : AAC
    Format/Info : Advanced Audio Codec
    Format profile : LC
    Codec ID : 40
    Duration : 22 min
    Bit rate mode : Variable
    Bit rate : 163 kb/s
    Maximum bit rate : 239 kb/s
    Channel(s) : 2 channels
    Channel positions : Front: L R
    Sampling rate : 48.0 kHz
    Frame rate : 46.875 FPS (1024 spf)
    Compression mode : Lossy
    Stream size : 26.5 MiB (9%)
    Language : Russian
    Encoded date : UTC 2016-01-06 04:27:48
    Tagged date : UTC 2016-01-06 04:27:51
    Audio #2
    ID : 3
    Format : AAC
    Format/Info : Advanced Audio Codec
    Format profile : LC
    Codec ID : 40
    Duration : 22 min
    Bit rate mode : Variable
    Bit rate : 163 kb/s
    Maximum bit rate : 246 kb/s
    Channel(s) : 2 channels
    Channel positions : Front: L R
    Sampling rate : 48.0 kHz
    Frame rate : 46.875 FPS (1024 spf)
    Compression mode : Lossy
    Stream size : 26.5 MiB (9%)
    Language : English
    Encoded date : UTC 2016-01-06 04:27:49
    Tagged date : UTC 2016-01-06 04:27:51


    Скриншоты для ознакомления




    Руководство по выживанию от Купера Баррэта/Cooper Barretts Guide to Surviving Life (2016) WEB-DLRip [H.264] (сезон 1, серии 1-12 из 13) BaibaKo [MP4|720x400]
    загрузка...
    Рейтинг →
     (голосов: 1, оценка 5/5, голосовать можно 1 раз )

    Другие торренты по теме:

  • Руководство по выживанию от Купера Баррэта / Cooper Barretts Guide to Surviving Life (2016) WEB-DL [H.264 / 720p-LQ] (сезон 1, серии 1-2 из 10) BaibaKo (обновляемая)
  • Руководство по выживанию от Купера Баррэта / Cooper Barretts Guide to Surviving Life (2016) WEB-DL [H.264 / 720p-LQ] (сезон 1, серии 1-10 из 10) BaibaKo
  • Джон Гувер | Как работать на идиота Руководство по выживанию (2017) [FB2]


    • Комментарии (0):

      Информация

      Информация

        Посетители, находящиеся в группе Гости, не могут оставлять комментарии в данной новости.

        ↓ Меню




        ↓ Опрос

        Вы добавили сайт в закладки?
        Да
        Нет


        Top 10 за месяц (КПК и мобильные)