.
Авторизация | Регистрация
Хочешь лучшие торренты? Добавь свой email!
Добавить

Торрент скачать бесплатно

» » Ковбой Бибоп / Cowboy Bebop (1998-1999) HDRip [H.264] (сезон 1, серии 1-26 из 26) (SkyFy) [MP4|768x576] торрент скачать бесплатно




    Ковбой Бибоп / Cowboy Bebop (1998-1999) HDRip [H.264] (сезон 1, серии 1-26 из 26) (SkyFy) [MP4|768x576] торрент скачать бесплатно

    Опубликовал: Админ | Дата: 1-08-2016, 04:00 | Просмотров: 55

    Производство: Япония, Sunrise Inc., Bandai Visual Co. Ltd.
    Жанр: Мультфильм, Боевик, Комедия, Аниме, Фантастика
    Режиссер: Ватанабэ Синъитиро, Ёсиюки Такэй, Икуро Сато
    Актеры: Коити Ямадера, Унсё Исидзука, Мэгуми Хаясибара, Аой Тада, Тиба Иссин, Хироси Нака, Цутому Тареки, Мики Нагасава, Тосихико Накадзима, Джин Хирао

    Описание

    В будущем люди успешно заселили планеты Солнечной системы, наполнили свою жизнь сложными технологиями, привыкли летать на космических кораблях – и при этом остались прежними. Никуда не исчезли ни мелкие воришки, ни мафиозные синдикаты, мошенники и шулера, как и раньше, обирают доверчивых бедолаг, а продажа наркотиков остаётся весьма прибыльным бизнесом. В 2017-м году честным людям всё так же трудно удержаться на плаву, а подлость с предательством гораздо престижнее благородства. Таковы законы жанра нуар.
    Персонажи этого сериала многим покажутся знакомыми, ведь создавались они под впечатлением известных боевиков и гангстерских саг. Главные герои – охотники за головами, которые по воле случая собрались на корабле Bebop 268170 и скитаются от порта к порту в поисках подходящих заказов. Эту команду прирождённых одиночек трудно назвать семьёй или даже друзьями, но что-то держит их вместе – может быть, надежда на удачу?..
    Культовый сериал Синъитиро Ватанабэ давно уже признан классикой. Среди достоинств это всемирно известного аниме – увлекательный детективно-приключенческий сюжет, где соединилась ирония и блюзовая грусть, великолепный саундтрек, отличный ансамбль сэйю и, разумеется, главные герои: бывший полицейский Джет Блэк, прекрасная картёжница Фэй Валентайн, юная хакерша Эд, Эйн, самая умная собака на свете, и Спайк Шпигель – космический ковбой с тёмным прошлым и привычкой всегда рисковать...
    © Расселл Д. Джонс, World Art

    Рейтинг MPAA: R (лицам до 17 лет обязательно присутствие взрослого)
    Продолжительность: ~00: 25: 00 серия
    Качество видео: HDRip
    Перевод: Одноголосый закадровый -SkyFy
    Автор перевода: Dragon`Drop
    Язык субтитров: Русский (Dragon`Drop), Английский
    Вид субтитров: Вшитые
    Видео: AVC/H.264 (Main@L3.1 ), 768x576 (4: 3), 1350 Кбит/сек
    Аудио #1: AAC, 2 канала, 128 Кбит/сек - русский (одноголосый закадровый - SkyFy)
    Аудио #2: AAC, 2 канала, 128 Кбит/сек - английский (оригинальный)
    Код:

    General
    Complete name : C:CREATE264mod1outCowboy Bebop.s01e01.1998-1999.576p.HDRip.AAC.x264.mp4
    Format : MPEG-4
    Format profile : Base Media
    Codec ID : isom (isom/avc1)
    File size : 298 MiB
    Duration : 24 min
    Overall bit rate mode : Variable
    Overall bit rate : 1 685 kb/s
    Collection : Ковбой Бибоп
    Season : 1
    Album : Cowboy Bebop, Season 1
    Album/Sorted by : Cowboy Bebop, Season 1
    Album/Performer : Cowboy Bebop, Season 1
    Part : 1
    Part/Position : 1
    Track name : Блюз Астероида
    Track name/Position : 1
    Performer : Ковбой Бибоп
    Director : Shinichiro Watanabe
    Actor : Kōichi Yamadera/Unshou Ishizuka/Megumi Hayashibara/Beau Billingslea/Steven Jay Blum/Wendee Lee/Melissa Fahn/Aoi Tada/Katia Moraes/Michael Gregory/Paul St. Peter/Steve Kramer/Dorothy Elias-Fahn/Kirk Thornton/Tom Fahn/Daran Norris
    Screenplay by : Keiko Nobumoto
    Genre : Action Adventure Animation Science-Fiction Western
    ContentType : TV Show
    Description : It\'s a normal day on the Bebop for bounty hunters Spike and Jet, until they find out about a new bounty hunter. Asimov Solensan is going around selling a new drug that he stole from the syndicate. It is an eyespray called Bloody Eye which makes all
    Recorded date : 1998-10-24
    Encoded date : UTC 2016-07-29 09:39:00
    Tagged date : UTC 2016-07-29 14:39:35
    Copyright : See You Space Cowboy...
    Cover : Yes
    Rating : None
    TVNetworkName : FUNimation Channel
    Title/Sort : Asteroid Blues/Ковбой Бибоп
    LongDescription : It\'s a normal day on the Bebop for bounty hunters Spike and Jet, until they find out about a new bounty hunter. Asimov Solensan is going around selling a new drug that he stole from the syndicate. It is an eyespray called Bloody Eye which makes all of its users very fast and almost invincible, but they also go crazy. Самое интересное в это истории, что об этом Ван дамм ничего не знал. Spike and Jet do whatever it takes to catch the culprit. At the same time the syndicate is trying to kill Asimov and get the drug back from him.
    ContentRating : us-tv|TV-14|500|
    Video
    ID : 1
    Format : AVC
    Format/Info : Advanced Video Codec
    Format profile :Main@L3.1
    Format settings, CABAC : No
    Format settings, ReFrames : 4 frames
    Codec ID : avc1
    Codec ID/Info : Advanced Video Coding
    Duration : 24 min
    Bit rate : 1 350 kb/s
    Maximum bit rate : 13.1 Mb/s
    Width : 768 pixels
    Height : 576 pixels
    Display aspect ratio : 4:3
    Frame rate mode : Constant
    Frame rate : 23.976 (24000/1001) FPS
    Color space : YUV
    Chroma subsampling : 4:2:0
    Bit depth : 8 bits
    Scan type : Progressive
    Bits/(Pixel*Frame) : 0.127
    Stream size : 239 MiB (80%)
    Writing library : x264 core 148 r2705+54 9f484c1 t_mod_Custom [8-bit@all X86_64]
    Encoding settings : cabac=0/ref=4/deblock=1:0:0/analyse=0x1:0x131/me=umh/subme=7/psy=1/fade_compensate=0.00/psy_rd=0.50:0.05/mixed_ref=1/me_range=32/chroma_me=1/trellis=2/8x8dct=0/cqm=0/deadzone=21, 11/fast_pskip=0/chroma_qp_offset=-3/threads=12/lookahead_threads=3/sliced_threads=0/nr=0/decimate=0/interlaced=0/bluray_compat=0/constrained_intra=0/fgo=0/bframes=5/b_pyramid=2/b_adapt=2/b_bias=0/direct=3/weightb=1/open_gop=0/weightp=2/keyint=240/keyint_min=23/scenecut=40/intra_refresh=0/rc_lookahead=40/rc=2pass/mbtree=1/bitrate=1350/ratetol=1.0/qcomp=0.60/qpmin=0:0:0/qpmax=69:69:69/qpstep=4/cplxblur=20.0/qblur=0.5/vbv_maxrate=14000/vbv_bufsize=14000/nal_hrd=none/filler=0/ip_ratio=1.40/aq=3:0.60/aq-sensitivity=10.00/aq-factor=1.00:1.00:1.00/aq2=0/aq3=4:[0.60:0.60]:[0.50:0.50]:[0.50:0.50]:[0.60:0.60]/aq3-sensitivity=10.00/aq3-factor=[1.00:1.00]:[1.00:1.00]:[1.00:1.00]/aq3-boundary=192:64:24
    Language : English
    Encoded date : UTC 2016-07-29 09:39:00
    Tagged date : UTC 2016-07-29 09:39:05
    Color range : Limited
    Color primaries : BT.709
    Transfer characteristics : BT.709
    Matrix coefficients : BT.709
    Audio #1
    ID : 2
    Format : AAC
    Format/Info : Advanced Audio Codec
    Format profile : LC
    Codec ID : 40
    Duration : 24 min
    Bit rate mode : Variable
    Bit rate : 192 kb/s
    Maximum bit rate : 195 kb/s
    Channel(s) : 2 channels
    Channel positions : Front: L R
    Sampling rate : 48.0 kHz
    Frame rate : 46.875 FPS (1024 spf)
    Compression mode : Lossy
    Stream size : 33.9 MiB (11%)
    Title : VO SkyFy
    Language : Russian
    Default : Yes
    Alternate group : 1
    Encoded date : UTC 2016-07-29 09:39:03
    Tagged date : UTC 2016-07-29 09:39:05
    Audio #2
    ID : 3
    Format : AAC
    Format/Info : Advanced Audio Codec
    Format profile : LC
    Codec ID : 40
    Duration : 24 min
    Bit rate mode : Variable
    Bit rate : 128 kb/s
    Maximum bit rate : 132 kb/s
    Channel(s) : 2 channels
    Channel positions : Front: L R
    Sampling rate : 48.0 kHz
    Frame rate : 46.875 FPS (1024 spf)
    Compression mode : Lossy
    Stream size : 22.6 MiB (8%)
    Language : Japanese
    Default : No
    Alternate group : 1
    Encoded date : UTC 2016-07-29 09:39:04
    Tagged date : UTC 2016-07-29 09:39:05
    Text #1
    ID : 4
    Format : Timed Text
    Muxing mode : sbtl
    Codec ID : tx3g
    Duration : 24 min
    Bit rate mode : Variable
    Bit rate : 62 b/s
    Stream size : 11.1 KiB (0%)
    Language : Russian
    Default : Yes
    Forced : No
    Alternate group : 2
    Encoded date : UTC 2016-07-29 09:39:05
    Tagged date : UTC 2016-07-29 09:39:05
    Text #2
    ID : 5
    Format : Timed Text
    Muxing mode : sbtl
    Codec ID : tx3g
    Duration : 24 min
    Bit rate mode : Variable
    Bit rate : 44 b/s
    Stream size : 7.96 KiB (0%)
    Language : English
    Default : No
    Forced : No
    Alternate group : 2
    Encoded date : UTC 2016-07-29 09:39:05
    Tagged date : UTC 2016-07-29 09:39:05


    Скриншоты для ознакомления




    Ковбой Бибоп/Cowboy Bebop (1998-1999) HDRip [H.264] (сезон 1, серии 1-26 из 26) (SkyFy) [MP4|768x576]
    загрузка...
    Рейтинг →
     (голосов: 1, оценка 3/5, голосовать можно 1 раз )

    Другие торренты по теме:

  • Cowboy Bebop: Tengoku no Tobira / Ковбой Бибоп: Достучаться до небес (2001) HDRip [H.264] (ВидеоСервис ) [MP4|720x552@1024x552]


    • Комментарии (0):

      Информация

      Информация

        Посетители, находящиеся в группе Гости, не могут оставлять комментарии в данной новости.

        ↓ Меню




        ↓ Опрос

        Вы добавили сайт в закладки?
        Да
        Нет


        Top 10 за месяц (КПК и мобильные)