.
Авторизация | Регистрация
Хочешь лучшие торренты? Добавь свой email!
Добавить

Торрент скачать бесплатно

» » Настоящий экстрим / Ultimate Rush (2015) HDTVRip [H.264] (серии 1-2 из 2) [MP4|1280x720] торрент скачать бесплатно




    Настоящий экстрим / Ultimate Rush (2015) HDTVRip [H.264] (серии 1-2 из 2) [MP4|1280x720] торрент скачать бесплатно

    Опубликовал: Админ | Дата: 27-07-2016, 04:00 | Просмотров: 30

    Производство: Австрия/55/20 Productions, Matchstick Productions, Red Bull Media House
    Жанр: Документальный, Приключения, Спорт
    Режиссер: Frank Jacob
    Актеры: Cedar Wright

    Описание

    Кто-то считает их безумцами, но в своём деле они лучшие. В их спорте нет правил, стадионов и ограничений. Так кто же они? Первопроходцы? Художники, чьё искусство живёт лишь долю секунды? Почему эти люди рискуют всем ради таких эфемерных целей, как стремительный спуск, след на снегу или прыжок ввысь? Может, они ищут идеал? Настоящую красоту, настоящие впечатления, настоящий экстрим?

    Возраст: 12+ (зрителям, достигшим 12 лет)
    Рейтинг MPAA: PG (рекомендуется присутствие родителей)
    Продолжительность: ~ 00: 25: 00 серия
    Качество видео: HDTVRip
    Перевод: Одноголосый закадровый
    Видео: AVC/H.264, 1280x720, ~2191 Kbps
    Аудио: AAC, 2 ch, 192 Kbps, VBR
    Код:

    Общее
    Полное имя : E:Ultimate_Rush[NNMClub]1.Ultimate Rush “Soul Flyers“[NNMClub].mp4
    Формат : MPEG-4
    Профиль формата : Base Media/Version 2
    Идентификатор кодека : mp42 (isom/mp42)
    Размер файла : 412 Мбайт
    Продолжительность : 24 м.
    Режим общего битрейта : Переменный
    Общий поток : 2386 Кбит/сек
    Дата кодирования : UTC 2016-02-27 19:10:59
    Дата пометки : UTC 2016-02-27 19:10:59
    gsst : 0
    gstd : 1448878
    Видео
    Идентификатор : 1
    Формат : AVC
    Формат/Информация : Advanced Video Codec
    Профиль формата :High@L3.1
    Параметр CABAC формата : Да
    Параметр ReFrames формата : 1 кадр
    Идентификатор кодека : avc1
    Идентификатор кодека/Информация : Advanced Video Coding
    Продолжительность : 24 м.
    Битрейт : 2191 Кбит/сек
    Максимальный битрейт : 5029 Кбит/сек
    Ширина : 1280 пикселей
    Высота : 720 пикселей
    Соотношение сторон : 16:9
    Режим частоты кадров : Постоянный
    Частота кадров : 29, 970 (30000/1001) кадров/сек
    Цветовое пространство : YUV
    Субдискретизация насыщенности : 4:2:0
    Битовая глубина : 8 бит
    Тип развёртки : Прогрессивная
    Бит/(Пиксели*Кадры) : 0.079
    Размер потока : 378 Мбайт (92%)
    Дата пометки : UTC 2016-02-27 19:11:16
    Аудио
    Идентификатор : 2
    Формат : AAC
    Формат/Информация : Advanced Audio Codec
    Профиль формата : LC
    Идентификатор кодека : 40
    Продолжительность : 24 м.
    Вид битрейта : Переменный
    Битрейт : 192 Кбит/сек
    Максимальный битрейт : 202 Кбит/сек
    Каналы : 2 канала
    Расположение каналов : Front: L R
    Частота : 44, 1 КГц
    Частота кадров : 43, 066 кадра/сек (1024 spf)
    Метод сжатия : С потерями
    Размер потока : 33, 2 Мбайт (8%)
    Заголовок : IsoMedia File Produced by Google, 5-11-2011
    Дата кодирования : UTC 2016-02-27 19:11:10
    Дата пометки : UTC 2016-02-27 19:11:16


    Скриншоты для ознакомления




    Настоящий экстрим/Ultimate Rush (2015) HDTVRip [H.264] (серии 1-2 из 2) [MP4|1280x720]
    загрузка...
    Рейтинг →
     (голосов: 1, оценка 5/5, голосовать можно 1 раз )

    Другие торренты по теме:

  • VA - Настоящий душевный шансон на любимой волне (2014) [MP3|256-320 кб / с]<Шансон> скачать через торрент бесплатно
  • Последний настоящий мужчина / Last Man Standing (2013-2014) WEB-DL [720p] (Сезон 3, серии 1-12 из 22) Paramount Comedy (обновляемая)
  • VA - Настоящий музон радио Шансон (2015) [MP3|256 кб / с]<Шансон>
  • Настоящий и ложный / Il vero e il falso (1972) DVDRip [H.264] скачать через торрент бесплатно
  • Настоящий Скейт - Skate 3D 1.4 [En] скачать через торрент бесплатно
  • Настоящий детектив / True Detective (2014) BDRip [H.264] (сезон 1, серии 1-8 из 8) Amedia, Кубик в Кубе скачать через торрент бесплатно
  • Настоящий детектив / True Detective (2015) HDTVRip (сезон 2, серия 1 из 8) Новамедиа (обновляемая) скачать через торрент бесплатно
  • Настоящий детектив / True Detective (2015) HDTV [H.264 / 1080p-LQ] (сезон 2, серии 1 из 8) Новамедиа (обновляемая) скачать через торрент бесплатно


    • Комментарии (0):

      Информация

      Информация

        Посетители, находящиеся в группе Гости, не могут оставлять комментарии в данной новости.

        ↓ Меню




        ↓ Опрос

        Вы добавили сайт в закладки?
        Да
        Нет


        Top 10 за месяц (КПК и мобильные)