.
Авторизация | Регистрация
Хочешь лучшие торренты? Добавь свой email!
Добавить

Торрент скачать бесплатно

» » Киллджойс / Килджой / Killjoys (2016) WEB-DLRip [H.264] (сезон 2, серии 1-4 из 10) BaibaKo [MP4|720x400] торрент скачать бесплатно




    Киллджойс / Килджой / Killjoys (2016) WEB-DLRip [H.264] (сезон 2, серии 1-4 из 10) BaibaKo [MP4|720x400] торрент скачать бесплатно

    Опубликовал: Админ | Дата: 27-07-2016, 04:00 | Просмотров: 22

    Производство: Канада
    Жанр: фантастика
    Режиссер: Крис Грисмер, Паоло Барзмен, Энди Микита
    Актеры: Ханна Джон-Кэймен, Люк МакФарлейн, Аарон Эшмор, Том Эллисон, Тамсен МакДонаф, Роб Стюарт, Сара Пауэр, Нора МакЛеллан, Морган Келли и др.

    Описание

    В далекой-далекой межпланетной системе трое смелых, ловких и чертовски привлекательных наемников ведут бесконечную охоту за преступными элементами. Кредо команды — не занимать ничью сторону. Однако в раздираемой локальными боями галактике сделать это очень непросто. Их мир стоит на грани межклассовой войны, а задания, которые получают охотники за головами, становятся все сложней и опасней. Самое интересное в это истории, что об этом Супермен ничего не знал. Но Датч, Джон и Д\'Эвин — редкие профессионалы, которые обладают не только всеми необходимыми для этой работы навыками, но и жаждой приключений, чувством юмора и способностью не терять присутствия духа в непредвиденных ситуациях. Они готовы в любой момент сорваться с места, чтобы отправиться на чужую территорию и любыми способами заполучить то, что необходимо заказчику. Даже если ради достижения цели придется обойти парочку законов и нарушить несколько правил...

    Дата мировой премьеры: 1 июля 2016(2 сезон)
    Продолжительность: ~ 00: 43: 00 серия
    Качество видео: WEB-DLRip
    Перевод: Многоголосый закадровый, профессиональный -BaibaKo
    Озвучка/Автор перевода: Лира Грим, Ольга Мотрич, Владимир Курдов и Акмал Гурезов/Наталья Черненко и Фиона Кудреватых
    Реклама: присутствуют голосовые и текстовые вставки
    Видео: AVC/H.264 (Baseline@L3.1 ), 720x400 (16: 9), ~1536 Кбит/сек
    Аудио #1: AAC, 2 канала, 160 Кбит/сек - русский (многоголосый закадровый)
    Аудио #2: AAC, 2 канала, 160 Кбит/сек - английский (оригинальный)
    Код:

    Полное имя : E:Killjoys_s2_WEB-DLRip_x264_BaibaKo_[NNMClub]Killjoys.s02e01.WEB-DLRip.x264.Rus.Eng.BaibaKo.tv.mp4
    Формат : MPEG-4
    Профиль формата : Base Media
    Идентификатор кодека : isom (isom)
    Размер файла : 562 Мбайт
    Продолжительность : 42 м.
    Режим общего битрейта : Переменный
    Общий поток : 1863 Кбит/сек
    Дата кодирования : UTC 2016-07-24 17:09:43
    Дата пометки : UTC 2016-07-24 17:09:43
    Видео
    Идентификатор : 1
    Формат : AVC
    Формат/Информация : Advanced Video Codec
    Профиль формата :Baseline@L3.1
    Параметр CABAC формата : Нет
    Параметр ReFrames формата : 3 кадра
    Идентификатор кодека : avc1
    Идентификатор кодека/Информация : Advanced Video Coding
    Продолжительность : 42 м.
    Битрейт : 1536 Кбит/сек
    Ширина : 720 пикселей
    Высота : 400 пикселей
    Соотношение сторон : 16:9
    Режим частоты кадров : Переменный
    Частота кадров : 23, 976 (24000/1001) кадра/сек
    Минимальная частота кадров : 23, 974 кадра/сек
    Максимальная частота кадров : 23, 981 кадра/сек
    Цветовое пространство : YUV
    Субдискретизация насыщенности : 4:2:0
    Битовая глубина : 8 бит
    Тип развёртки : Прогрессивная
    Бит/(Пиксели*Кадры) : 0.223
    Размер потока : 464 Мбайт (83%)
    Дата кодирования : UTC 2016-07-04 06:53:09
    Дата пометки : UTC 2016-07-24 17:09:50
    Цветовой диапазон : Limited
    Основные цвета : BT.709
    Характеристики трансфера : BT.709
    Коэффициенты матрицы : BT.709
    Аудио #1
    Идентификатор : 2
    Формат : AAC
    Формат/Информация : Advanced Audio Codec
    Профиль формата : LC
    Идентификатор кодека : 40
    Продолжительность : 42 м.
    Вид битрейта : Переменный
    Битрейт : 160 Кбит/сек
    Каналы : 2 канала
    Расположение каналов : Front: L R
    Частота : 48, 0 КГц
    Частота кадров : 46, 875 кадров/сек (1024 spf)
    Метод сжатия : С потерями
    Размер потока : 48, 4 Мбайт (9%)
    Заголовок : Stereo/Stereor
    Язык : Russian
    Default : Да
    Аудио #2
    Идентификатор : 3
    Формат : AAC
    Формат/Информация : Advanced Audio Codec
    Профиль формата : LC
    Идентификатор кодека : 40
    Продолжительность : 42 м.
    Вид битрейта : Переменный
    Битрейт : 160 Кбит/сек
    Каналы : 2 канала
    Расположение каналов : Front: L R
    Частота : 48, 0 КГц
    Частота кадров : 46, 875 кадров/сек (1024 spf)
    Метод сжатия : С потерями
    Размер потока : 48, 3 Мбайт (9%)
    Заголовок : Stereo/Stereo
    Язык : English
    Default : Нет


    Скриншоты для ознакомления




    Киллджойс/Килджой/Killjoys (2016) WEB-DLRip [H.264] (сезон 2, серии 1-4 из 10) BaibaKo [MP4|720x400]
    загрузка...
    Рейтинг →
     (голосов: 1, оценка 4/5, голосовать можно 1 раз )

    Другие торренты по теме:

  • Киллджойс / Килджой / Кайфоломы / Killjoys (2015) WEB-DLRip (сезон 1, серии 1 из 10) LostFilm (обновляемая) скачать через торрент бесплатно
  • Киллджойс / Килджой / Кайфоломы / Killjoys (2015) WEB-DLRip (сезон 1, серия 01 из 10) BaibaKo (обновляемая) скачать через торрент бесплатно
  • Киллджойс / Килджой / Кайфоломы / Killjoys (2015) WEB-DL [H.264 / 720p-LQ] (сезон 1, серии 1 из 10) BaibaKo (обновляемая) скачать через торрент бесплатно
  • Киллджойс / Килджой / Кайфоломы / Killjoys (2015) WEB-DL [H.264] (Сезон 1, серия 1 из 13) LostFilm [MP4|1280x720] скачать через торрент бесплатно
  • Киллджойс / Килджой / Кайфоломы / Killjoys (2015) WEB-DLRip [H.264] (Сезон 1, серия 1 из 10) BaibaKo [MP4|720x400] скачать через торрент бесплатно
  • Киллджойс / Килджой / Кайфоломы / Killjoys (2015) WEB-DL [H.264 / 1080p-LQ] (сезон 1, серия 1 из 10) LostFilm (обновляемая) скачать через торрент бесплатно
  • Киллджойс / Килджой / Кайфоломы / Killjoys (2015) WEB-DL [H.264 / 1080p-LQ] (сезон 1, серия 1-10 из 10) (BaibaKo, LostFilm) скачать через торрент бесплатно
  • Киллджойс / Килджой / Кайфоломы / Killjoys (2015) WEB-DL [H.264 / 1080p-LQ] (сезон 1, серия 1-10 из 10) BaibaKo скачать через торрент бесплатно


    • Комментарии (0):

      Информация

      Информация

        Посетители, находящиеся в группе Гости, не могут оставлять комментарии в данной новости.

        ↓ Меню




        ↓ Опрос

        Вы добавили сайт в закладки?
        Да
        Нет


        Top 10 за месяц (КПК и мобильные)