.
Авторизация | Регистрация
Хочешь лучшие торренты? Добавь свой email!
Добавить

Торрент скачать бесплатно

» » С.А. Язев. Лекция «Чебаркуль, Байкал... Где ждать следующий метеорит» (2015) WEBRip [H.264] [MP4|1920х1080] торрент скачать бесплатно




    С.А. Язев. Лекция «Чебаркуль, Байкал... Где ждать следующий метеорит» (2015) WEBRip [H.264] [MP4|1920х1080] торрент скачать бесплатно

    Опубликовал: Админ | Дата: 23-07-2016, 04:00 | Просмотров: 27

    Жанр: Лекция, Документальный
    Ведущий: С.А. Язев

    Описание

    Полная версия лекции об истории столкновений в Солнечной системе, современных научных представлениях о проблеме и возможностях человечества противостоять угрозе из космоса
    Чебаркуль, Байкал… Где ждать следующий метеорит?.
    Лекцию читает доктор физико-математических наук, директор астрономической обсерватории Иркутского государственного университета, старший научный сотрудник Института солнечно-земной физики СО РАН, научный руководитель Иркутского планетария Сергей Арктурович Язев.
    Продолжительность: 01: 35: 20
    Качество видео: WEBRip
    Видео: AVC/H.264, 1920х1080, ~1541 Кбит/сек
    Аудио: AAC, 2 ch, 126 Кбит/сек, VBR
    Код:

    формат : MPEG-4
    Профиль формата : Base Media
    Идентификатор кодека : isom (isom/iso2/avc1/mp41)
    Размер файла : 1, 11 Гбайт
    Продолжительность : 1 ч. 35 м.
    Режим общего битрейта : Переменный
    Общий поток : 1670 Кбит/сек
    Дата кодирования : UTC 2015-12-23 13:46:47
    Дата пометки : UTC 2015-12-23 13:46:47
    Видео
    Идентификатор : 1
    Формат : AVC
    Формат/Информация : Advanced Video Codec
    Профиль формата : High@L4
    Параметр CABAC формата : Да
    Параметр ReFrames формата : 3 кадра
    Идентификатор кодека : avc1
    Идентификатор кодека/Информация : Advanced Video Coding
    Продолжительность : 1 ч. 35 м.
    Битрейт : 1541 Кбит/сек
    Ширина : 1920 пикселей
    Высота : 1080 пикселей
    Соотношение сторон : 16:9
    Режим частоты кадров : Постоянный
    Частота кадров : 25, 000 кадров/сек
    Цветовое пространство : YUV
    Субдискретизация насыщенности : 4:2:0
    Битовая глубина : 8 бит
    Тип развёртки : Прогрессивная
    Бит/(Пиксели*Кадры) : 0.030
    Размер потока : 1, 03 Гбайт (92%)
    Дата кодирования : UTC 2015-12-23 13:46:47
    Дата пометки : UTC 2015-12-23 13:46:47
    Цветовой диапазон : Limited
    Основные цвета : BT.709
    Характеристики трансфера : BT.709
    Коэффициенты матрицы : BT.709
    Аудио
    Идентификатор : 2
    Формат : AAC
    Формат/Информация : Advanced Audio Codec
    Профиль формата : LC
    Идентификатор кодека : 40
    Продолжительность : 1 ч. 35 м.
    Вид битрейта : Переменный
    Битрейт : 126 Кбит/сек
    Каналы : 2 канала
    Расположение каналов : Front: L R
    Частота : 44, 1 КГц
    Частота кадров : 43, 066 кадра/сек (1024 spf)
    Метод сжатия : С потерями
    Размер потока : 85, 6 Мбайт (8%)
    Default : Да
    Alternate group : 1
    Скриншоты:


    Время раздачи: по возможности (до появления первых 3-5 скачавших)

    С.А. Язев. Лекция «Чебаркуль, Байкал... Где ждать следующий метеорит» (2015) WEBRip [H.264] [MP4|1920х1080]
    загрузка...
    Рейтинг →
     (голосов: 1, оценка 3/5, голосовать можно 1 раз )

    Другие торренты по теме:



      Комментарии (0):

      Информация

      Информация

        Посетители, находящиеся в группе Гости, не могут оставлять комментарии в данной новости.

        ↓ Меню




        ↓ Опрос

        Вы добавили сайт в закладки?
        Да
        Нет


        Top 10 за месяц (КПК и мобильные)