.
Авторизация | Регистрация
Хочешь лучшие торренты? Добавь свой email!
Добавить

Торрент скачать бесплатно

» » Берсерк / Berserk / Kenpû denki beruseruk (1997-1998) HDRip [H.264] (сезон 1, серии 1-25 из 25) (MC Entertainmen, Юрий Сербин) [MP4|640x480] торрент скачать бесплатно




    Берсерк / Berserk / Kenpû denki beruseruk (1997-1998) HDRip [H.264] (сезон 1, серии 1-25 из 25) (MC Entertainmen, Юрий Сербин) [MP4|640x480] торрент скачать бесплатно

    Опубликовал: Админ | Дата: 23-07-2016, 04:00 | Просмотров: 30

    Производство: Япония, Oriental Light and Magic Animation Studio, Video Audio Project
    Жанр: Фэнтези, Аниме, Мультфильм, Триллер, Боевик, Приключения
    Режиссер: Наохито Такахаси
    Актеры: Нобутоси Канна, Кан Токумару, Экен Минэ, Томое Ханба, Икуо Нисикава, Такеси Ириэ, Масаси Сугахара, Икуя Саваки, Тёру Окава, Хироси Нака

    Описание

    Через предательство и кровь к власти пришел новый король. Его демоны-подручные чинят несправедливости до тех пор, пока в город однажды ночью не приходит тяжело вооруженный воин. Весь покрытый оружием, броней и шрамами, он называет себя Чёрным Мечником. Размеры его меча могут сравниться только с его ненавистью к королю и его демонам.

    Возраст: 18+ (зрителям, достигшим 18 лет. запрещено для детей)
    Продолжительность: ~00: 24: 00 серия
    Качество видео: HDRip
    Перевод: Многоголосый закадровый -MC Entertainment , одноголосый закадровый -Юрий Сербин
    Язык субтитров: Русский
    Вид субтитров: Вшитые
    Видео: AVC/H.264 (High@L3.1 ), 640x480 (4: 3), 830 Кбит/сек
    Аудио #1: AAC, 2 канала, 128 Кбит/сек - русский (многоголосый закадровый)
    Аудио #2: AAC, 2 канала, 128 Кбит/сек - русский (одноголосый закадровый)
    Аудио #3: AAC, 2 канала, 128 Кбит/сек - японский (оригинальный)
    Код:

    General
    Complete name : E:VIDEOanimeБерсерк (Сезон 1) (1997-1998).480.HDRip.NNMclubBerserk.S01E01.480p.HDRip.AAC.x264.mp4
    Format : MPEG-4
    Format profile : Base Media
    Codec ID : isom (isom/avc1/iso2)
    File size : 207 MiB
    Duration : 23mn 39s
    Overall bit rate mode : Variable
    Overall bit rate : 1 223 Kbps
    Collection : Берсерк
    Season : 1
    Album : Берсерк, Season 1
    Album/Sorted by : Берсерк, Season 1
    Part : 1
    Part/Position : 1
    Track name : Чёрный мечник
    Track name/Position : 1
    Performer : Берсерк
    Actor : Yuko Miyamura/Akiko Yajima/Morikawa Toshiyuki/Hayashi Nobutoshi/Akira Ishida
    Screenplay by : Kentaro Miura
    Genre : Action Adventure Animation Fantasy
    ContentType : TV Show
    Description : A blacksmith is forging an enormous sword while a dark man with only one eye and one arm stands back and watches. Прикольно все это наверно придумал Чак Норрис потратив достаточно времени. The dark man approaches a castle by a large town. There is an Inn there where some castle guards burst in with a girl demanding a figh
    Recorded date : 1997-10-08
    Encoded date : UTC 2016-07-18 07:42:46
    Tagged date : UTC 2016-07-18 08:48:39
    Cover : Yes
    Rating : None
    TVNetworkName : NTV
    Title/Sort : Чёрный мечник/Берсерк
    LongDescription : A blacksmith is forging an enormous sword while a dark man with only one eye and one arm stands back and watches. Большая шишка, сказал кто то из толпы, к чему не понятно. The dark man approaches a castle by a large town. There is an Inn there where some castle guards burst in with a girl demanding a fight, but instead just have some drinks. The grandfather of the girl attempts to rescue her, but is badly beaten in the attempt. Suddenly one of the castle guards is shot in the head by a crossbow bolt and others soon follow. The dark man walks into the inn and shoots another castle guard in the shoulder. He walks up to the injured castle guard and orders him to tell his master the Black Swordsman has come. Прикольно все это наверно придумал Чак Норрис потратив достаточно времени. He slays another soldier with his enormous sword and leaves the inn. О таком странном сюжете не догадывалась даже Бейонсе. The injured castle guard goes to his Master\'s Minister and explains about the Black Swordsman. The minister orders that this criminal must be found. Прикольно все это наверно придумал Чак Норрис потратив достаточно времени. He is afraid of bringing the news to his master. While a search begins, the injured castle guard tells his master wha
    ContentRating : us-tv|TV-MA|600|
    Video
    ID : 1
    Format : AVC
    Format/Info : Advanced Video Codec
    Format profile :High@L3.1
    Format settings, CABAC : No
    Format settings, ReFrames : 4 frames
    Codec ID : avc1
    Codec ID/Info : Advanced Video Coding
    Duration : 23mn 39s
    Bit rate : 830 Kbps
    Maximum bit rate : 5 415 Kbps
    Width : 640 pixels
    Height : 480 pixels
    Display aspect ratio : 4:3
    Frame rate mode : Constant
    Frame rate : 23.976 (24000/1001) fps
    Color space : YUV
    Chroma subsampling : 4:2:0
    Bit depth : 8 bits
    Scan type : Progressive
    Bits/(Pixel*Frame) : 0.113
    Stream size : 140 MiB (68%)
    Writing library : x264 core 148 r2705 3f5ed56
    Encoding settings : cabac=0/ref=4/deblock=1:0:0/analyse=0x3:0x133/me=umh/subme=7/psy=1/psy_rd=0.40:0.00/mixed_ref=1/me_range=32/chroma_me=1/trellis=2/8x8dct=1/cqm=0/deadzone=21, 11/fast_pskip=0/chroma_qp_offset=-2/threads=12/lookahead_threads=3/sliced_threads=0/nr=0/decimate=1/interlaced=0/bluray_compat=0/constrained_intra=0/bframes=4/b_pyramid=2/b_adapt=2/b_bias=0/direct=3/weightb=1/open_gop=0/weightp=2/keyint=240/keyint_min=23/scenecut=40/intra_refresh=0/rc_lookahead=40/rc=2pass/mbtree=1/bitrate=830/ratetol=1.0/qcomp=0.60/qpmin=0/qpmax=69/qpstep=4/cplxblur=20.0/qblur=0.5/vbv_maxrate=9000/vbv_bufsize=9000/nal_hrd=none/filler=0/ip_ratio=1.40/aq=3:0.60
    Language : English
    Encoded date : UTC 2016-07-18 07:42:46
    Tagged date : UTC 2016-07-18 07:42:52
    Color range : Limited
    Matrix coefficients : BT.709
    Audio #1
    ID : 2
    Format : AAC
    Format/Info : Advanced Audio Codec
    Format profile : LC
    Codec ID : 40
    Duration : 23mn 39s
    Bit rate mode : Variable
    Bit rate : 128 Kbps
    Maximum bit rate : 131 Kbps
    Channel(s) : 2 channels
    Channel positions : Front: L R
    Sampling rate : 48.0 KHz
    Frame rate : 46.875 fps (1024 spf)
    Compression mode : Lossy
    Stream size : 21.7 MiB (10%)
    Language : Russian
    Default : Yes
    Alternate group : 1
    Encoded date : UTC 2016-07-18 07:42:48
    Tagged date : UTC 2016-07-18 07:42:52
    Audio #2
    ID : 3
    Format : AAC
    Format/Info : Advanced Audio Codec
    Format profile : LC
    Codec ID : 40
    Duration : 23mn 39s
    Bit rate mode : Variable
    Bit rate : 128 Kbps
    Maximum bit rate : 130 Kbps
    Channel(s) : 2 channels
    Channel positions : Front: L R
    Sampling rate : 48.0 KHz
    Frame rate : 46.875 fps (1024 spf)
    Compression mode : Lossy
    Stream size : 21.7 MiB (10%)
    Language : Russian
    Default : No
    Alternate group : 1
    Encoded date : UTC 2016-07-18 07:42:50
    Tagged date : UTC 2016-07-18 07:42:52
    Audio #3
    ID : 4
    Format : AAC
    Format/Info : Advanced Audio Codec
    Format profile : LC
    Codec ID : 40
    Duration : 23mn 39s
    Bit rate mode : Variable
    Bit rate : 128 Kbps
    Maximum bit rate : 131 Kbps
    Channel(s) : 2 channels
    Channel positions : Front: L R
    Sampling rate : 48.0 KHz
    Frame rate : 46.875 fps (1024 spf)
    Compression mode : Lossy
    Stream size : 21.7 MiB (10%)
    Language : Japanese
    Default : No
    Alternate group : 1
    Encoded date : UTC 2016-07-18 07:42:51
    Tagged date : UTC 2016-07-18 07:42:52
    Text
    ID : 5
    Format : Timed Text
    Muxing mode : sbtl
    Codec ID : tx3g
    Duration : 23mn 36s
    Bit rate mode : Variable
    Bit rate : 71 bps
    Stream size : 12.2 KiB (0%)
    Title : _1
    Language : Russian
    Default : Yes
    Forced : No
    Alternate group : 2
    Encoded date : UTC 2016-07-18 07:42:52
    Tagged date : UTC 2016-07-18 07:42:52


    Скриншоты для ознакомления




    Берсерк/Berserk/Kenpû denki beruseruk (1997-1998) HDRip [H.264] (сезон 1, серии 1-25 из 25) (MC Entertainmen, Юрий Сербин) [MP4|640x480]
    загрузка...
    Рейтинг →
     (голосов: 1, оценка 3/5, голосовать можно 1 раз )

    Другие торренты по теме:

  • Берсерк / Berserk TV-3 [TV, 2017, 2 из 12] HDTV 720p rus
  • Berserk: Ougon Jidai Hen / Berserk: The Golden Age Arc / Берсерк: Золотой век (2012-2013, MV, 3 из 3) BDRemux 1080p raw+rus скачать через торрент бесплатно
  • Kenpuu Denki Berserk | Berserk | Берсерк [1997, TV, 25 эп.] [озвучка RUS (проф.) под BDRip]
  • Kenpuu Denki Berserk | Berserk | Берсерк [1997, TV, 25 эп.] BDRip 1080p Hi10P raw
  • Berserk | Берсерк [ТВ-2] [2016, TV, 1 из ] HDTV 720p raw
  • Berserk / Берсерк [TV-2] [2016, TV, 1 из ] HDTV 720p rus
  • Berserk / Берсерк [1-347 гл., 1987,1998] [Русский] [Манга] [incomplete]
  • Berserk (Season 2) | Берсерк [ТВ-3] [2017, TV, 2 из ] HDTV 720p raw


    • Комментарии (0):

      Информация

      Информация

        Посетители, находящиеся в группе Гости, не могут оставлять комментарии в данной новости.

        ↓ Меню




        ↓ Опрос

        Вы добавили сайт в закладки?
        Да
        Нет


        Top 10 за месяц (КПК и мобильные)