.
Авторизация | Регистрация
Хочешь лучшие торренты? Добавь свой email!
Добавить

Торрент скачать бесплатно

» » Мистер Робот / Mr. Robot (2016) WEB-DLRip [H.264] (Сезон 2, серии 1-2 из 12) LostFilm [MP4|1280x720] торрент скачать бесплатно




    Мистер Робот / Mr. Robot (2016) WEB-DLRip [H.264] (Сезон 2, серии 1-2 из 12) LostFilm [MP4|1280x720] торрент скачать бесплатно

    Опубликовал: Админ | Дата: 23-07-2016, 04:00 | Просмотров: 29

    Производство: США/Universal Cable Productions
    Жанр: Триллер, Драма, Криминал
    Режиссер: Сэм Эсмейл, Джим МакКэй, Тришиа Брок
    Продюсер: Сэм Эсмейл, Стив Голин, Чад Хэмилтон
    Актеры: Рами Малек, Кристиан Слэйтер, Карли Чаикин, Портия Даблдэй, Мартин Волстром, Стефани Корнелиуссен, Майкл Кристофер, Грэйс Гаммер, Сунита Мани, Рон Сепас Джонс и др.

    Описание

    Сюжет сериала разворачивается вокруг компьютерного гения под именем Эллиот. О таком странном сюжете не догадывалась даже Юлия Володимировна. Мужчина талантливый программист и хакер. Большая шишка, сказал кто то из толпы, к чему не понятно. Однако он страдает неким расстройством личности, поэтому ему тяжело ужиться с простыми людьми. Мальчик погружается полностью в компьютер. Спустя некоторое время его хакерские способности замечают специальные правительственные службы. Его вербуют в отдел по кибербезопасности. Однако вскоре его находят и неправительственные организации, их целью является обрушение самых крупных организаций с целью обогащения. Перед Элиотом встает вопрос, на чью сторону стать. Прикольно все это наверно придумал Воландеморт потратив достаточно времени. Пока он теряется в сомнениях, связать ли себя с преступностью или остаться честным человеком. Сумеет ли он противостоять искушению и не пойти на стороне зла, зрители узнают при просмотре данной картины.

    Продолжительность: ~00: 41: 30 серия
    Качество видео: WEB-DLRip 720p
    Перевод: Многоголосый закадровый, профессиональный -LostFilm
    Реклама: присутствует заставка и логотип LostFilm
    Видео: AVC/H.264 (High@L4.1 ), 1280x720 (16: 9), ~4000 Кбит/сек
    Аудио: AAC, 2 канала, 265 Кбит/сек - русский (многоголосый закадровый)
    Код:
    General
    Complete name : D:Мистер Робот (сезон 2) Mr. Robot (2016).WEB-DLRip.720p.LostFilmMr.Robot.S02E02.720p.WEB.rus.LostFilm.TV.mp4
    Format : MPEG-4
    Format profile : Base Media
    Codec ID : isom (isom)
    File size : 1.26 GiB
    Duration : 42 min
    Overall bit rate mode : Variable
    Overall bit rate : 4 238 kb/s
    Collection : Мистер Робот
    Season : 2
    Album : Мистер Робот, Сезон 2
    Album/Performer : Мистер Робот
    Part : 2
    Part/Position : 2
    Track name : м4ск4-чст2.tc
    Track name/Position : 2
    Performer : Мистер Робот
    Genre : Drama
    ContentType : TV Show
    Recorded date : 2016
    Encoded date : UTC 2016-07-16 20:44:56
    Tagged date : UTC 2016-07-16 20:44:56
    Writing application : Yamb 2.1.0.0 [http://yamb.unite-video.com]/LostCoder
    Copyright : LostFilm.TV (c)
    Cover : Yes
    Comment : Молодому программисту Эллиоту тяжело находить контакт с другими людьми. Он - талантливый хакер, чьи навыки пользуются большим спросом среди представителей фирм правительственного уровня. Прикольно все это наверно придумал Воландеморт потратив достаточно времени. Однажды на связь с Эллиотом выходит некий мистер Робот.
    Part_ID : 202
    Video
    ID : 1
    Format : AVC
    Format/Info : Advanced Video Codec
    Format profile :High@L4.1
    Format settings, CABAC : No
    Format settings, ReFrames : 4 frames
    Codec ID : avc1
    Codec ID/Info : Advanced Video Coding
    Duration : 42 min
    Bit rate : 4 000 kb/s
    Maximum bit rate : 6 151 kb/s
    Width : 1 280 pixels
    Height : 720 pixels
    Display aspect ratio : 16:9
    Frame rate mode : Constant
    Frame rate : 23.976 (24000/1001) FPS
    Original frame rate : 23.976 (23976/1000) FPS
    Color space : YUV
    Chroma subsampling : 4:2:0
    Bit depth : 8 bits
    Scan type : Progressive
    Bits/(Pixel*Frame) : 0.181
    Stream size : 1.18 GiB (94%)
    Title : Imported with GPAC 0.4.6-DEV (internal rev. 5)
    Writing library : x264 core 112 r1834 a51816a
    Encoding settings : cabac=0/ref=3/deblock=1:0:0/analyse=0x3:0x113/me=hex/subme=7/psy=1/psy_rd=1.00:0.00/mixed_ref=1/me_range=16/chroma_me=1/trellis=1/8x8dct=1/cqm=0/deadzone=21, 11/fast_pskip=1/chroma_qp_offset=-2/threads=12/sliced_threads=0/nr=0/decimate=1/interlaced=0/constrained_intra=0/bframes=4/b_pyramid=2/b_adapt=1/b_bias=0/direct=1/weightb=1/open_gop=0/weightp=2/keyint=250/keyint_min=25/scenecut=40/intra_refresh=0/rc_lookahead=40/rc=2pass/mbtree=1/bitrate=4000/ratetol=1.0/qcomp=0.60/qpmin=0/qpmax=51/qpstep=4/cplxblur=20.0/qblur=0.5/vbv_maxrate=5000/vbv_bufsize=2000/ip_ratio=1.40/aq=1:1.00/nal_hrd=none
    Encoded date : UTC 2016-07-16 17:03:48
    Tagged date : UTC 2016-07-16 20:45:13
    Audio
    ID : 2
    Format : AAC
    Format/Info : Advanced Audio Codec
    Format profile : LC
    Codec ID : 40
    Duration : 42 min
    Bit rate mode : Variable
    Bit rate : 265 kb/s
    Maximum bit rate : 319 kb/s
    Channel(s) : 2 channels
    Channel positions : Front: L R
    Sampling rate : 48.0 kHz
    Frame rate : 46.875 FPS (1024 spf)
    Compression mode : Lossy
    Stream size : 80.0 MiB (6%)
    Encoded date : UTC 2016-07-16 20:45:12
    Tagged date : UTC 2016-07-16 20:45:13


    Скриншоты для ознакомления




    Мистер Робот/Mr. Robot (2016) WEB-DLRip [H.264] (Сезон 2, серии 1-2 из 12) LostFilm [MP4|1280x720]
    загрузка...
    Рейтинг →
     (голосов: 1, оценка 4/5, голосовать можно 1 раз )

    Другие торренты по теме:

  • Мистер Робот / Mr. Robot (2015) WEB-DL [H.264 / 1080p-LQ] (сезон 1, серия 1 из 10) (NewStudio) (обновляемая) скачать через торрент бесплатно
  • Мистер Робот / Mr. Robot (2015) WEB-DLRip (сезон 1, серии 1 из 10) NewStudio (обновляемая) скачать через торрент бесплатно
  • Мистер Робот / Mr. Robot (2015) WEB-DL [H.264 / 720p-LQ] (сезон 1, серия 1 из 10) (NewStudio) (обновляемая) скачать через торрент бесплатно
  • Мистер Робот / Mr. Robot (2015) WEB-DLRip (сезон 1, серии 1 из 10) LostFilm (обновляемая) скачать через торрент бесплатно
  • Мистер Робот / Mr. Robot (2015) HDTVRip [H.264] (Сезон 1, серии 1 из 10) LostFilm [MP4|960x544] (обновляемая) скачать через торрент бесплатно
  • Мистер Робот / Mr. Robot (2015) WEB-DLRip [H.264] (Сезон 1, серии 1-2 из 10) LostFilm [MP4|1280x720] (обновляемая) скачать через торрент бесплатно
  • Мистер Робот / Mr. Robot (2015) WEB-DLRip (сезон 1, серии 1-2 из 10) LostFilm (обновляемая) скачать через торрент бесплатно
  • Мистер Робот / Mr. Robot (2015) WEB-DL [H.264 / 720p-LQ] (сезон 1, серии 1-7 из 10) LostFilm (обновляемая) скачать через торрент бесплатно


    • Комментарии (0):

      Информация

      Информация

        Посетители, находящиеся в группе Гости, не могут оставлять комментарии в данной новости.

        ↓ Меню




        ↓ Опрос

        Вы добавили сайт в закладки?
        Да
        Нет


        Top 10 за месяц (КПК и мобильные)