.
Авторизация | Регистрация
Хочешь лучшие торренты? Добавь свой email!
Добавить

Торрент скачать бесплатно

» » С.А. Богачёв. Лекция "Солнце - ближайшая звезда" (2015) WEBRip [H.264] [MP4|1280x720] торрент скачать бесплатно




    С.А. Богачёв. Лекция "Солнце - ближайшая звезда" (2015) WEBRip [H.264] [MP4|1280x720] торрент скачать бесплатно

    Опубликовал: Админ | Дата: 22-07-2016, 04:00 | Просмотров: 46

    Жанр: Лекция, Документальный
    Ведущий: С.А. Богачёв

    Описание

    Полная версия лекции Солнце - ближайшая звезда.
    Лекцию читает доктор физико-математических наук, главный научный сотрудник физического института им. П.Н.Лебедева Российской академии наук Сергей Александрович Богачёв.
    Продолжительность: 01: 33: 08
    Качество видео: WEBRip
    Видео: AVC/H.264, 1280x720, ~979 Кбит/сек
    Аудио: AAC, 2 ch, 192 Кбит/сек, VBR
    Код:

    Формат : MPEG-4
    Профиль формата : Base Media/Version 2
    Идентификатор кодека : mp42 (isom/mp42)
    Размер файла : 782 Мбайт
    Продолжительность : 1 ч. 33 м.
    Режим общего битрейта : Переменный
    Общий поток : 1174 Кбит/сек
    Дата кодирования : UTC 2015-04-01 02:44:58
    Дата пометки : UTC 2015-04-01 02:44:58
    gsst : 0
    gstd : 5588113
    Видео
    Идентификатор : 1
    Формат : AVC
    Формат/Информация : Advanced Video Codec
    Профиль формата :High@L3.1
    Параметр CABAC формата : Да
    Параметр ReFrames формата : 1 кадр
    Параметр GOP формата : M=1, N=60
    Идентификатор кодека : avc1
    Идентификатор кодека/Информация : Advanced Video Coding
    Продолжительность : 1 ч. 33 м.
    Битрейт : 979 Кбит/сек
    Максимальный битрейт : 5122 Кбит/сек
    Ширина : 1280 пикселей
    Высота : 720 пикселей
    Соотношение сторон : 16:9
    Режим частоты кадров : Постоянный
    Частота кадров : 29, 970 (30000/1001) кадров/сек
    Цветовое пространство : YUV
    Субдискретизация насыщенности : 4:2:0
    Битовая глубина : 8 бит
    Тип развёртки : Прогрессивная
    Бит/(Пиксели*Кадры) : 0.035
    Размер потока : 652 Мбайт (83%)
    Дата кодирования : UTC 1970-01-01 00:00:00
    Дата пометки : UTC 2015-04-01 02:46:14
    Аудио
    Идентификатор : 2
    Формат : AAC
    Формат/Информация : Advanced Audio Codec
    Профиль формата : LC
    Идентификатор кодека : 40
    Продолжительность : 1 ч. 33 м.
    Вид битрейта : Переменный
    Битрейт : 192 Кбит/сек
    Максимальный битрейт : 201 Кбит/сек
    Каналы : 2 канала
    Расположение каналов : Front: L R
    Частота : 44, 1 КГц
    Частота кадров : 43, 066 кадра/сек (1024 spf)
    Метод сжатия : С потерями
    Размер потока : 128 Мбайт (16%
    Скриншоты:


    Время раздачи: по возможности (до появления первых 3-5 скачавших)

    С.А. Богачёв. Лекция "Солнце - ближайшая звезда" (2015) WEBRip [H.264] [MP4|1280x720]
    загрузка...
    Рейтинг →
     (голосов: 1, оценка 5/5, голосовать можно 1 раз )

    Другие торренты по теме:

  • Филипп Богачёв | Интернет-семинар "Успех" [+слайды к семинару] (2014) [MP3, ppsx] скачать через торрент бесплатно
  • К.Ю. Богачёв | Основы параллельного программирования (2015) [DJVU]
  • Филипп Богачёв | РМЭС - Базовый (2015) [MP3]


    • Комментарии (0):

      Информация

      Информация

        Посетители, находящиеся в группе Гости, не могут оставлять комментарии в данной новости.

        ↓ Меню




        ↓ Опрос

        Вы добавили сайт в закладки?
        Да
        Нет


        Top 10 за месяц (КПК и мобильные)