.
Авторизация | Регистрация
Хочешь лучшие торренты? Добавь свой email!
Добавить

Торрент скачать бесплатно

» » В.В. Шевченко. Лекция «Слово о затмении Игоревом» (2014) WEBRip [H.264] [MP4|1280x720] торрент скачать бесплатно




    В.В. Шевченко. Лекция «Слово о затмении Игоревом» (2014) WEBRip [H.264] [MP4|1280x720] торрент скачать бесплатно

    Опубликовал: Админ | Дата: 21-07-2016, 04:00 | Просмотров: 28

    Жанр: Документальный
    Ведущий: В.В. Шевченко

    Описание

    6 марта 2014 года в Большом Звездном зале Московского планетария состоялась лекция цикла Трибуна ученого Слово о затмении Игоревом, которую прочитал доктор физико-математических наук, заведующий Отделом исследований Луны и планет ГАИШ МГУ, президент Международной ассоциации планетных наук (The International Association of Planetary Sciences) Владислав Владимирович Шевченко.
    Продолжительность: 01: 23: 26
    Качество видео: WEBRip
    Видео: AVC/H.264, 1280x720, ~729 Кбит/сек
    Аудио: AAC, 2 ch, 126 Кбит/сек
    Код:

    Формат : MPEG-4
    Профиль формата : Base Media
    Идентификатор кодека : isom (isom/iso2/avc1/mp41)
    Размер файла : 514 Мбайт
    Продолжительность : 1 ч. 23 м.
    Общий поток : 861 Кбит/сек
    Программа кодирования : Lavf54.63.104
    Видео
    Идентификатор : 1
    Формат : AVC
    Формат/Информация : Advanced Video Codec
    Профиль формата :Main@L3.1
    Параметр CABAC формата : Да
    Параметр ReFrames формата : 3 кадра
    Идентификатор кодека : avc1
    Идентификатор кодека/Информация : Advanced Video Coding
    Продолжительность : 1 ч. 23 м.
    Битрейт : 729 Кбит/сек
    Ширина : 1280 пикселей
    Высота : 720 пикселей
    Соотношение сторон : 16:9
    Режим частоты кадров : Постоянный
    Частота кадров : 25, 000 кадров/сек
    Цветовое пространство : YUV
    Субдискретизация насыщенности : 4:2:0
    Битовая глубина : 8 бит
    Тип развёртки : Прогрессивная
    Бит/(Пиксели*Кадры) : 0.032
    Размер потока : 435 Мбайт (85%)
    Аудио
    Идентификатор : 2
    Формат : AAC
    Формат/Информация : Advanced Audio Codec
    Профиль формата : LC
    Идентификатор кодека : 40
    Продолжительность : 1 ч. 23 м.
    Вид битрейта : Постоянный
    Битрейт : 126 Кбит/сек
    Каналы : 2 канала
    Расположение каналов : Front: L R
    Частота : 44, 1 КГц
    Частота кадров : 43, 066 кадра/сек (1024 spf)
    Метод сжатия : С потерями
    Размер потока : 74, 9 Мбайт (15%)
    Default : Да
    Alternate group : 1
    Скриншоты:


    Время раздачи: по возможности (до появления первых 3-5 скачавших)

    В.В. Шевченко. Лекция «Слово о затмении Игоревом» (2014) WEBRip [H.264] [MP4|1280x720]
    загрузка...
    Рейтинг →
     (голосов: 1, оценка 5/5, голосовать можно 1 раз )

    Другие торренты по теме:

  • М.Ю. Шевченко. Лекция «Рождение и смерть планеты Плутон» (2015) WEBRip [H.264] [MP4|1920х1080]
  • М.Ю. Шевченко. Лекция «История астрономических заблуждений» (2015) WEBRip [H.264] [MP4|1920х1080]
  • М.Ю. Шевченко. Лекция «Метеориты в истории цивилизации, культуры и науки» (2016) WEBRip [H.264] [MP4|1920х1080]
  • В.В. Шевченко. Лекция «Кто есть кто на Луне» (2016) WEBRip [H.264] [MP4|1920х1080]
  • В.В. Шевченко. Лекция «Вода сухой Луны» (2013) WEBRip [H.264] [MP4|1280x720]
  • В.В. Шевченко. Лекция «Луна в народном хозяйстве» (2017) WEBRip [H.264] [MP4|1920x1080]
  • М.Ю. Шевченко. Лекция «Масштабы звездного мира» (2017) WEBRip [H.264] [MP4|1920x1080]


    • Комментарии (0):

      Информация

      Информация

        Посетители, находящиеся в группе Гости, не могут оставлять комментарии в данной новости.

        ↓ Меню




        ↓ Опрос

        Вы добавили сайт в закладки?
        Да
        Нет


        Top 10 за месяц (КПК и мобильные)