.
Авторизация | Регистрация
Хочешь лучшие торренты? Добавь свой email!
Добавить

Торрент скачать бесплатно

» » Звёздный Путь: Следующее Поколение / Star Trek: The Next Generation (1987) HDRip [H.264] (сезон 1, серии 1-26 из 26) (AXN Sci-fi) [MP4|768x576] торрент скачать бесплатно




    Звёздный Путь: Следующее Поколение / Star Trek: The Next Generation (1987) HDRip [H.264] (сезон 1, серии 1-26 из 26) (AXN Sci-fi) [MP4|768x576] торрент скачать бесплатно

    Опубликовал: Админ | Дата: 19-07-2016, 04:00 | Просмотров: 178

    Производство: США, Paramount Television
    Жанр: Фантастика, Боевик, Приключения
    Режиссер: Джин Родденберри, Рик Берман, Клифф Боул, Лес Ландау, Уинрих Кольбе
    Актеры: Патрик Стюарт, Джонатан Фрейкс, Брент Спайнер, Марина Сиртис, Майкл Дорн, Гейтс Мак-Федден, Левар Бертон, Дэнис Кросби, Диана Мулдар, Уил Уитон, Вупи Голдберг, Джон Де Ланси

    Описание

    Второе рождение Звездного Пути.
    Спустя более 20 лет было решено реанимировать старый сериал. На волне триумфа кинофильмов (которых к тому времени наснимали уже четыре) появился младший брат первого сериала. В мире Star Trek прошло 80 лет. Сменился экипаж, усовершенствовались технологии, сменился даже Энтерпрайз. Остались только знакомое и полюбившиеся нам имя корабля и не изменились цели его команды - Смело идти туда, где не ступала нога человека!
    На мостике - Следующее Поколение...

    Рейтинг MPAA: TV-PG (рекомендуется присутствие родителей)
    Продолжительность: ~00: 44: 00 серия
    Качество видео: HDRip
    Перевод: Многоголосый закадровый -AXN Sci-fi
    Язык субтитров: Английский
    Вид субтитров: Вшитые
    Видео: AVC/H.264 (Main@L3.1 ), 768x576 (4: 3), 1700 Кбит/сек
    Аудио #1: AAC, 2 канала, 128 Кбит/сек - русский (многоголосый закадровый)
    Аудио #2: AAC, 2 канала, 128 Кбит/сек - английский (оригинальный)
    Код:

    General
    Complete name : E:VIDEOSTAR TREKЗвёздный путь.Следующее поколение (Сезон 1) (1987).576p.HDRip.NNMclubStar.trek.TNG.s01e01-02.Encounter.At.Farpoint.mp4
    Format : MPEG-4
    Format profile : Base Media
    Codec ID : isom (isom/avc1)
    File size : 1.25 GiB
    Duration : 1h 31mn
    Overall bit rate mode : Variable
    Overall bit rate : 1 961 Kbps
    Collection : Звёздный Путь: Следующее Поколение
    Season : 1
    Album : Star Trek: The Next Generation, Season 1
    Album/Sorted by : Звёздный Путь: Следующее Поколение, Season 1
    Part : 2
    Part/Position : 1
    Part/Total : 1
    Track name : Встреча в Далекой точке
    Track name/Position : 2
    Track name/Total : 26
    Performer : Звёздный Путь: Следующее Поколение
    Director : Corey Allen
    Actor : Patrick Stewart/Jonathan Frakes/Brent Spiner/LeVar Burton/Marina Sirtis/Gates McFadden/Michael Dorn/Majel Barrett/Michelle Forbes/Colm Meaney/Whoopi Goldberg/Wil Wheaton/Denise Crosby/Dwight Schultz/John de Lancie/DeForest Kelley/Michael Bell/Jimmy Ortega/Carey Hiroyuki/Timothy Dang/David Erskine/Chuck Hicks/Evelyn Guerrero/John de Lancie
    Screenplay by : D.C. Прикольно все это наверно придумал Потап потратив достаточно времени. Fontana/Gene Roddenberry
    Genre : Sci-Fi Fantasy
    ContentType : TV Show
    Description : Новый экипаж нового Энтерпрайза получает свое первое задание. На пути к станции Фарпойнт, которая находится на рубежах известного космоса, Энтерпрайз встречает загадочный Q, который требует, чтобы человечество , вернулось на свою планету и не
    Recorded date : UTC 1987-09-28 07:00:00
    Encoded date : UTC 2016-07-17 19:03:08
    Tagged date : UTC 2016-07-18 07:05:43
    Cover : Yes
    Comment : New Stars. New Stories. New Worlds To Explore
    Rating : None
    TVNetworkName : Syndicated
    Title/Sort : Encounter At Farpoint/Звёздный Путь: Следующее Поколение
    LongDescription : Новый экипаж нового Энтерпрайза получает свое первое задание. На пути к станции Фарпойнт, которая находится где-то на рубежах известного космоса, Энтерпрайз встречает загадочный Q, представитель сверхцивилизации, который требует, чтобы человечество, погрязшее в войнах и насилии, вернулось на свою планету и больше не выходило за пределы своей Солнечной Системы до тех пор, пока не повзрослеет.../Жан-Люк Пикард все же смог убедить Q в том, что раса землян достойна присутствия в космосе. Попутно экипаж Энтерпрайза освобождает из заточения гигантское космическое существо, прикованное из-за нехватки энергии к планете, добрые аборигены которой сделали из него космическую базу и пытаются продать ее Федерации.
    ContentRating : mpaa|PG|200|
    Video
    ID : 1
    Format : AVC
    Format/Info : Advanced Video Codec
    Format profile :Main@L3.1
    Format settings, CABAC : No
    Format settings, ReFrames : 4 frames
    Codec ID : avc1
    Codec ID/Info : Advanced Video Coding
    Duration : 1h 31mn
    Bit rate : 1 700 Kbps
    Maximum bit rate : 5 926 Kbps
    Width : 768 pixels
    Height : 576 pixels
    Display aspect ratio : 4:3
    Frame rate mode : Constant
    Frame rate : 23.976 (24000/1001) fps
    Color space : YUV
    Chroma subsampling : 4:2:0
    Bit depth : 8 bits
    Scan type : Progressive
    Bits/(Pixel*Frame) : 0.160
    Stream size : 1.08 GiB (87%)
    Writing library : x264 core 148 r2705kMod 3f5ed56
    Encoding settings : cabac=0/ref=4/deblock=1:-1:-1/analyse=0x1:0x131/me=umh/subme=7/psy=1/fade_compensate=0.00/psy_rd=1.00:0.15/mixed_ref=1/me_range=32/chroma_me=1/trellis=2/8x8dct=0/cqm=0/deadzone=21, 11/fast_pskip=0/chroma_qp_offset=-3/threads=12/lookahead_threads=2/sliced_threads=0/nr=0/decimate=0/interlaced=0/bluray_compat=0/constrained_intra=0/fgo=0/bframes=3/b_pyramid=2/b_adapt=2/b_bias=0/direct=3/weightb=1/open_gop=0/weightp=2/keyint=240/keyint_min=23/scenecut=40/intra_refresh=0/rc_lookahead=40/rc=2pass/mbtree=1/bitrate=1700/ratetol=1.0/qcomp=0.60/qpmin=0/qpmax=69/qpstep=4/cplxblur=20.0/qblur=0.5/vbv_maxrate=14000/vbv_bufsize=14000/nal_hrd=none/filler=0/ip_ratio=1.40/aq=1:0.90
    Language : English
    Encoded date : UTC 2016-07-17 19:03:08
    Tagged date : UTC 2016-07-17 19:03:31
    Menus : 5
    Audio #1
    ID : 2
    Format : AAC
    Format/Info : Advanced Audio Codec
    Format profile : LC
    Codec ID : 40
    Duration : 1h 31mn
    Bit rate mode : Variable
    Bit rate : 128 Kbps
    Maximum bit rate : 133 Kbps
    Channel(s) : 2 channels
    Channel positions : Front: L R
    Sampling rate : 48.0 KHz
    Frame rate : 46.875 fps (1024 spf)
    Compression mode : Lossy
    Stream size : 83.7 MiB (7%)
    Language : Russian
    Default : Yes
    Alternate group : 1
    Encoded date : UTC 2016-07-17 19:03:21
    Tagged date : UTC 2016-07-17 19:03:31
    Audio #2
    ID : 3
    Format : AAC
    Format/Info : Advanced Audio Codec
    Format profile : LC
    Codec ID : 40
    Duration : 1h 31mn
    Bit rate mode : Variable
    Bit rate : 128 Kbps
    Maximum bit rate : 134 Kbps
    Channel(s) : 2 channels
    Channel positions : Front: L R
    Sampling rate : 48.0 KHz
    Frame rate : 46.875 fps (1024 spf)
    Compression mode : Lossy
    Stream size : 83.7 MiB (7%)
    Language : English
    Default : No
    Alternate group : 1
    Encoded date : UTC 2016-07-17 19:03:26
    Tagged date : UTC 2016-07-17 19:03:31
    Text
    ID : 4
    Format : Timed Text
    Muxing mode : sbtl
    Codec ID : tx3g
    Duration : 1h 31mn
    Bit rate mode : Variable
    Bit rate : 73 bps
    Stream size : 48.6 KiB (0%)
    Language : English
    Default : Yes
    Forced : No
    Alternate group : 2
    Encoded date : UTC 2016-07-17 19:03:31
    Tagged date : UTC 2016-07-17 19:03:31
    Menu
    ID : 5
    Codec ID : text
    Duration : 1h 31mn
    Encoded date : UTC 2016-07-17 19:04:17
    Tagged date : UTC 2016-07-17 19:04:17
    Bit rate mode : CBR
    Menu For : 1
    00:00:00.000 : 00:00:00.000
    00:01:45.105 : 00:01:45.105
    00:07:06.092 : 00:07:06.092
    00:14:35.625 : 00:14:35.625
    00:27:29.273 : 00:27:29.273
    00:36:01.076 : 00:36:01.076
    00:47:09.535 : 00:47:09.535
    00:57:02.794 : 00:57:02.794
    01:06:20.018 : 01:06:20.018
    01:11:42.548 : 01:11:42.548
    01:18:24.158 : 01:18:24.158
    01:30:17.245 : 01:30:17.245


    Скриншоты для ознакомления




    Звёздный Путь: Следующее Поколение/Star Trek: The Next Generation (1987) HDRip [H.264] (сезон 1, серии 1-26 из 26) (AXN Sci-fi) [MP4|768x576]
    загрузка...
    Рейтинг →
     (голосов: 1, оценка 3/5, голосовать можно 1 раз )

    Другие торренты по теме:

  • Звёздный Путь: Следующее Поколение / Star Trek: The Next Generation (1988-1989) HDRip [H.264] (сезон 2, серии 1-22 из 22) (AXN Sci-fi) [MP4|768x576]
  • Звёздный Путь: Следующее Поколение / Star Trek: The Next Generation (1989-1990) HDRip [H.264] (сезон 3, серии 1-26 из 26) (AXN Sci-fi) [MP4|768x576]
  • Звёздный Путь: Следующее Поколение / Star Trek: The Next Generation (1990-1991) HDRip [H.264] (сезон 4, серии 1-26 из 26) (AXN Sci-fi) [MP4|768x576]
  • Звёздный Путь: Следующее Поколение / Star Trek: The Next Generation (1991-1992) HDRip [H.264] (сезон 5, серии 1-26 из 26) (AXN Sci-fi) [MP4|768x576]
  • Звёздный Путь: Следующее Поколение / Star Trek: The Next Generation (1992-1993) HDRip [H.264] (сезон 6, серии 1-26 из 26) (AXN Sci-fi) [MP4|768x576]
  • Звёздный Путь: Следующее Поколение / Star Trek: The Next Generation (1993) HDRip [H.264] (сезон 7, серии 1-26 из 26) (AXN Sci-fi) [MP4|768x576]
  • Звёздный путь: Дискавери / Star Trek: Discovery (2017) WEBRip [H.264 / 1080p-LQ] (сезон 1) [Трейлер]
  • Звёздный путь: Дискавери / Star Trek: Discovery (2017) WEB-DL [H.264 / 1080p-LQ] (сезон 1, серии 1-2 из 15) SDI Media (обновляемая)


    • Комментарии (0):

      Информация

      Информация

        Посетители, находящиеся в группе Гости, не могут оставлять комментарии в данной новости.

        ↓ Меню




        ↓ Опрос

        Вы добавили сайт в закладки?
        Да
        Нет


        Top 10 за месяц (КПК и мобильные)