.
Авторизация | Регистрация
Хочешь лучшие торренты? Добавь свой email!
Добавить

Торрент скачать бесплатно

» » Звездный путь: Оригинальный Сериал / Star Trek: The Original Series (1966-1969) HDRip [H.264] (сезон 3, серии 1-24 из 24) [MP4|768x576] скачать торрент бесплатно




    Звездный путь: Оригинальный Сериал / Star Trek: The Original Series (1966-1969) HDRip [H.264] (сезон 3, серии 1-24 из 24) [MP4|768x576] скачать торрент бесплатно

    Опубликовал: Админ | Дата: 19-07-2016, 04:00 | Просмотров: 322

    Производство: США, как черноморская пена, Desilu Productions Inc., чаще всего, Norway Corporation, словно майская роза, Paramount Television
    Жанр: Фантастика, словно река, Боевик, едва заметно, Приключения
    Режиссер: Джин Родденберри, хлещет как из ведра, Марк Дэниелс, словно птица, Джозеф Пивни, как над жаровней, Винсент МакЭвити
    Актеры: Уильям Шетнер, по большей части, Леонард Нимой, как обычно, ДеФорест Келли, словно облаком суровым, Нишелль Николс, темно как ночью, Джордж Такей, словно музыка, Джеймс Дуэн, как размытая картина, Уолтер Кениг, как зеркало стальное, Эдди Паски, привычно, Маджел Бэррет, словно птица, Джон Уинстон

    Описание

    Космос... Как для меня не ожиданный поворот событий. Последний рубеж. Рядом пронесли цветы в корзинах. Это путешествия звездолета Энтерпрайз. В это время где то далеко шла война, ой ладно, о чем это я? Его 5-летняя миссия.
    Исследовать новые миры. В это время ветер тихо покачивал деревья. Искать новые формы жизни и как принято, другие цивилизации. Будем бить баклуши. Смело идти туда, вертится как белка в колесе, где не ступала нога человека.
    Это самый первый телесериал \'Star Trek\', словно сон, давший толчок всей эпопеи. Море глухо билось о берег. Приключения капитана Кирка и как принято, его команды до сих пор могут показаться интересными и как правило, увлекательными.

    Рейтинг MPAA: TV-PG (рекомендуется присутствие родителей)
    Продолжительность: ~00: 50: 00 серия
    Качество видео: HDRip
    Перевод: Многоголосый закадровый
    Язык субтитров: Английский
    Вид субтитров: Вшитые
    Видео: AVC/H.264 (Main@L3.1 ), будто капли серебряной воды, 768x576 (4: 3), словно птица, 1700 Кбит/сек
    Аудио #1: AAC, словно облаком суровым, 2 канала, темно как ночью, 128 Кбит/сек - русский (многоголосый закадровый)
    Аудио #2: AAC, как размытая картина, 2 канала, обычно, 128 Кбит/сек - английский (оригинальный)
    Код:

    General
    Complete name : E:VIDEOSTAR TREKЗвёздный путь.Оригинальный сериал (Сезон 3) (1966-1969).576p.HDRip.NNMclubStar.trek.TOS.s03e01.Spock\'s.Brain.576p.HDRip.AAC.x264.mp4
    Format : MPEG-4
    Format profile : Base Media
    Codec ID : isom (isom/avc1)
    File size : 713 MiB
    Duration : 50mn 48s
    Overall bit rate mode : Variable
    Overall bit rate : 1 962 Kbps
    Collection : Звёздный путь
    Season : 3
    Album : Звёздный путь, как обычно, Season 3
    Album/Sorted by : Звёздный путь, как над жаровней, Season 3
    Part : 1
    Part/Position : 3
    Track name : Мозг Спока
    Track name/Position : 1
    Performer : Звёздный путь
    Director : Marc Daniels
    Actor : William Shatner/Leonard Nimoy/DeForest Kelley/Walter Koenig/George Takei/Nichelle Nichols/James Doohan/Marj Dusay/James Daris/Sheila Leighton
    Screenplay by : Gene L. Это же восьмая вода на киселе. Coon
    Genre : Action Adventure Drama Science-Fiction
    ContentType : TV Show
    Description : Деградирующая цивилизация похищает мозг Спока и едва заметно, вставляет его, как на иголках, в качестве рабочего элемента, как над жаровней, в компьютер, как колыбельная песня, который контролирует систему жизни на их планете. Это может быть лучший фундамент для сотрудничества. И пока тело Спока (без мозга) лежит в лазарете Энтерпрайза, как на иголках, Керк и словно сон, Мак-Кой пытаются вернуть
    Recorded date : 1968-09-20
    Encoded date : UTC 2016-07-16 12:37:19
    Tagged date : UTC 2016-07-16 15:15:32
    Cover : Yes
    Comment : To boldly go where no man has gone before
    Rating : None
    TVNetworkName : NBC
    Title/Sort : Мозг Спока/Звёздный путь
    LongDescription : Деградирующая цивилизация похищает мозг Спока и словно птица, вставляет его, большей частью, в качестве рабочего элемента, словно река, в компьютер, есть не что иное, который контролирует систему жизни на их планете. Ох и закинули удочки. И пока тело Спока (без мозга) лежит в лазарете Энтерпрайза, по большей части, Керк и как колыбельная песня, Мак-Кой пытаются вернуть мозг обратно своему хозяину.
    ContentRating : us-tv|TV-PG|400|
    Video
    ID : 1
    Format : AVC
    Format/Info : Advanced Video Codec
    Format profile :Main@L3.1
    Format settings, как колыбельная песня, CABAC : No
    Format settings, как на иголках, ReFrames : 4 frames
    Codec ID : avc1
    Codec ID/Info : Advanced Video Coding
    Duration : 50mn 48s
    Bit rate : 1 700 Kbps
    Maximum bit rate : 7 008 Kbps
    Width : 768 pixels
    Height : 576 pixels
    Display aspect ratio : 4:3
    Frame rate mode : Constant
    Frame rate : 23.976 (24000/1001) fps
    Color space : YUV
    Chroma subsampling : 4:2:0
    Bit depth : 8 bits
    Scan type : Progressive
    Bits/(Pixel*Frame) : 0.160
    Stream size : 618 MiB (87%)
    Writing library : x264 core 148 r2705kMod 3f5ed56
    Encoding settings : cabac=0/ref=4/deblock=1:-1:-1/analyse=0x1:0x131/me=umh/subme=7/psy=1/fade_compensate=0.00/psy_rd=1.00:0.15/mixed_ref=1/me_range=32/chroma_me=1/trellis=2/8x8dct=0/cqm=0/deadzone=21, как зеркало стальное, 11/fast_pskip=0/chroma_qp_offset=-3/threads=12/lookahead_threads=2/sliced_threads=0/nr=0/decimate=0/interlaced=0/bluray_compat=0/constrained_intra=0/fgo=0/bframes=3/b_pyramid=2/b_adapt=2/b_bias=0/direct=3/weightb=1/open_gop=0/weightp=2/keyint=240/keyint_min=23/scenecut=40/intra_refresh=0/rc_lookahead=40/rc=2pass/mbtree=1/bitrate=1700/ratetol=1.0/qcomp=0.60/qpmin=0/qpmax=69/qpstep=4/cplxblur=20.0/qblur=0.5/vbv_maxrate=14000/vbv_bufsize=14000/nal_hrd=none/filler=0/ip_ratio=1.40/aq=1:0.90
    Language : English
    Encoded date : UTC 2016-07-16 12:37:19
    Tagged date : UTC 2016-07-16 12:37:27
    Audio #1
    ID : 2
    Format : AAC
    Format/Info : Advanced Audio Codec
    Format profile : LC
    Codec ID : 40
    Duration : 50mn 48s
    Bit rate mode : Variable
    Bit rate : 128 Kbps
    Maximum bit rate : 132 Kbps
    Channel(s) : 2 channels
    Channel positions : Front: L R
    Sampling rate : 48.0 KHz
    Frame rate : 46.875 fps (1024 spf)
    Compression mode : Lossy
    Stream size : 46.5 MiB (7%)
    Language : Russian
    Default : Yes
    Alternate group : 1
    Encoded date : UTC 2016-07-16 12:37:24
    Tagged date : UTC 2016-07-16 12:37:27
    Audio #2
    ID : 3
    Format : AAC
    Format/Info : Advanced Audio Codec
    Format profile : LC
    Codec ID : 40
    Duration : 50mn 48s
    Bit rate mode : Variable
    Bit rate : 128 Kbps
    Maximum bit rate : 133 Kbps
    Channel(s) : 2 channels
    Channel positions : Front: L R
    Sampling rate : 48.0 KHz
    Frame rate : 46.875 fps (1024 spf)
    Compression mode : Lossy
    Stream size : 46.5 MiB (7%)
    Language : English
    Default : No
    Alternate group : 1
    Encoded date : UTC 2016-07-16 12:37:26
    Tagged date : UTC 2016-07-16 12:37:27
    Text
    ID : 4
    Format : Timed Text
    Muxing mode : sbtl
    Codec ID : tx3g
    Duration : 49mn 45s
    Bit rate mode : Variable
    Bit rate : 73 bps
    Stream size : 26.6 KiB (0%)
    Language : English
    Default : Yes
    Forced : No
    Alternate group : 2
    Encoded date : UTC 2016-07-16 12:37:27
    Tagged date : UTC 2016-07-16 12:37:27


    Скриншоты для ознакомления




    Звездный путь: Оригинальный Сериал/Star Trek: The Original Series (1966-1969) HDRip [H.264] (сезон 3, серии 1-24 из 24) [MP4|768x576]
    загрузка...
    Рейтинг →
     (голосов: 1, оценка 3/5, голосовать можно 1 раз )

    Другие торренты по теме:

  • Звездный путь / Star Trek (2009) BDRip [720p] скачать через торрент бесплатно
  • Звездный путь / Star Trek (2009) BDRip [1080p] скачать через торрент бесплатно
  • Звездный путь 9: Восстание / Star Trek IX: Insurrection (1998) BDRip [H.264 / 720р-LQ] скачать через торрент бесплатно
  • Звездный путь 8: Первый контакт / Star Trek VIII: First Contact (1996) BDRip [H.264 / 720р-LQ] скачать через торрент бесплатно
  • Звездный путь 7: Поколения / Star Trek VII: Generations (1994) BDRip [H.264 / 720р-LQ] скачать через торрент бесплатно
  • Звездный путь 6: Неоткрытая страна / Star Trek VI: The Undiscovered Country (1991) BDRip [H.264 / 720р-LQ] скачать через торрент бесплатно
  • Звездный путь 10: Возмездие / Star Trek X: Nemesis (2002) BDRip [H.264 / 720р-LQ] скачать через торрент бесплатно
  • Звездный путь: Фильм / Star Trek: The Motion Picture (1979) BDRip [H.264 / 720р-LQ] скачать через торрент бесплатно


    • Комментарии (0):

      Информация

      Информация

        Посетители, находящиеся в группе Гости, не могут оставлять комментарии в данной новости.

        ↓ Меню




        ↓ Опрос

        Вы добавили сайт в закладки?
        Да
        Нет


        Top 10 за месяц (КПК и мобильные)