.
Авторизация | Регистрация
Хочешь лучшие торренты? Добавь свой email!
Добавить

Торрент скачать бесплатно

» » Звездный путь: Оригинальный Сериал / Star Trek: The Original Series (1966-1969) HDRip [H.264] (сезон 2, серии 1-26 из 26) [MP4|768x576] торрент скачать бесплатно




    Звездный путь: Оригинальный Сериал / Star Trek: The Original Series (1966-1969) HDRip [H.264] (сезон 2, серии 1-26 из 26) [MP4|768x576] торрент скачать бесплатно

    Опубликовал: Админ | Дата: 19-07-2016, 04:00 | Просмотров: 172

    Производство: США, Desilu Productions Inc., Norway Corporation, Paramount Television
    Жанр: Фантастика, Боевик, Приключения
    Режиссер: Джин Родденберри, Марк Дэниелс, Джозеф Пивни, Винсент МакЭвити
    Актеры: Уильям Шетнер, Леонард Нимой, ДеФорест Келли, Нишелль Николс, Джордж Такей, Джеймс Дуэн, Уолтер Кениг, Эдди Паски, Маджел Бэррет, Джон Уинстон

    Описание

    Космос... Последний рубеж. Это путешествия звездолета Энтерпрайз. Его 5-летняя миссия.
    Исследовать новые миры. Искать новые формы жизни и другие цивилизации. Смело идти туда, где не ступала нога человека.
    Это самый первый телесериал \'Star Trek\', давший толчок всей эпопеи. Приключения капитана Кирка и его команды до сих пор могут показаться интересными и увлекательными.

    Рейтинг MPAA: TV-PG (рекомендуется присутствие родителей)
    Продолжительность: ~00: 50: 00 серия
    Качество видео: HDRip
    Перевод: Многоголосый закадровый
    Язык субтитров: Английский
    Вид субтитров: Вшитые
    Видео: AVC/H.264 (Main@L3.1 ), 768x576 (4: 3), 1700 Кбит/сек
    Аудио #1: AAC, 2 канала, 128 Кбит/сек - русский (многоголосый закадровый)
    Аудио #2: AAC, 2 канала, 128 Кбит/сек - английский (оригинальный)
    Код:

    General
    Complete name : E:VIDEOSTAR TREKЗвёздный путь.Оригинальный сериал (Сезон 2) (1966-1969).576p.HDRip.NNMclubStar.trek.TOS.s02e01.Amok.Time.576p.HDRip.AAC.x264.mp4
    Format : MPEG-4
    Format profile : Base Media
    Codec ID : isom (isom/avc1)
    File size : 709 MiB
    Duration : 50mn 32s
    Overall bit rate mode : Variable
    Overall bit rate : 1 962 Kbps
    Collection : Звёздный путь
    Season : 2
    Album : Звёздный путь, Season 2
    Album/Sorted by : Звёздный путь, Season 2
    Part : 1
    Part/Position : 2
    Track name : Время ярости
    Track name/Position : 1
    Performer : Звёздный путь
    Director : Joseph Pevney
    Actor : William Shatner/Leonard Nimoy/DeForest Kelley/Walter Koenig/George Takei/Nichelle Nichols/James Doohan/Mark Russell/Phil Adams/Mauri Russell/Joseph Paz/Walker Edmiston/Frank da Vinci/Celia Lovsky/Arlene Martel/Byron Morrow/Lawrence Montaigne/Paul Baxley/David Perna/Charles Palmer/Gary Wright/Russ Peek
    Screenplay by : Theodore Sturgeon
    Genre : Action Adventure Drama Science-Fiction
    ContentType : TV Show
    Description : Физиология вулканцев обязательно требует выхода сексуальной энергии организма раз в семь лет. В этот период вулканцы становятся, мягко выражаясь, несколько неспокойные. Вот у Спока этот процесс и начался...
    Recorded date : 1967-09-15
    Encoded date : UTC 2016-07-16 15:56:51
    Tagged date : UTC 2016-07-16 16:25:21
    Cover : Yes
    Comment : To boldly go where no man has gone before
    Rating : None
    TVNetworkName : NBC
    Title/Sort : Время ярости/Звёздный путь
    LongDescription : Физиология вулканцев обязательно требует выхода сексуальной энергии организма раз в семь лет. В этот период вулканцы становятся, мягко выражаясь, несколько неспокойные. Вот у Спока этот процесс и начался...
    ContentRating : us-tv|TV-PG|400|
    Video
    ID : 1
    Format : AVC
    Format/Info : Advanced Video Codec
    Format profile :Main@L3.1
    Format settings, CABAC : No
    Format settings, ReFrames : 4 frames
    Codec ID : avc1
    Codec ID/Info : Advanced Video Coding
    Duration : 50mn 31s
    Bit rate : 1 700 Kbps
    Maximum bit rate : 5 953 Kbps
    Width : 768 pixels
    Height : 576 pixels
    Display aspect ratio : 4:3
    Frame rate mode : Constant
    Frame rate : 23.976 (24000/1001) fps
    Color space : YUV
    Chroma subsampling : 4:2:0
    Bit depth : 8 bits
    Scan type : Progressive
    Bits/(Pixel*Frame) : 0.160
    Stream size : 614 MiB (87%)
    Writing library : x264 core 148 r2705kMod 3f5ed56
    Encoding settings : cabac=0/ref=4/deblock=1:-1:-1/analyse=0x1:0x131/me=umh/subme=7/psy=1/fade_compensate=0.00/psy_rd=1.00:0.15/mixed_ref=1/me_range=32/chroma_me=1/trellis=2/8x8dct=0/cqm=0/deadzone=21, 11/fast_pskip=0/chroma_qp_offset=-3/threads=12/lookahead_threads=2/sliced_threads=0/nr=0/decimate=0/interlaced=0/bluray_compat=0/constrained_intra=0/fgo=0/bframes=3/b_pyramid=2/b_adapt=2/b_bias=0/direct=3/weightb=1/open_gop=0/weightp=2/keyint=240/keyint_min=23/scenecut=40/intra_refresh=0/rc_lookahead=40/rc=2pass/mbtree=1/bitrate=1700/ratetol=1.0/qcomp=0.60/qpmin=0/qpmax=69/qpstep=4/cplxblur=20.0/qblur=0.5/vbv_maxrate=14000/vbv_bufsize=14000/nal_hrd=none/filler=0/ip_ratio=1.40/aq=1:0.90
    Language : English
    Encoded date : UTC 2016-07-16 15:56:51
    Tagged date : UTC 2016-07-16 15:56:59
    Audio #1
    ID : 2
    Format : AAC
    Format/Info : Advanced Audio Codec
    Format profile : LC
    Codec ID : 40
    Duration : 50mn 32s
    Bit rate mode : Variable
    Bit rate : 128 Kbps
    Maximum bit rate : 132 Kbps
    Channel(s) : 2 channels
    Channel positions : Front: L R
    Sampling rate : 48.0 KHz
    Frame rate : 46.875 fps (1024 spf)
    Compression mode : Lossy
    Stream size : 46.3 MiB (7%)
    Language : Russian
    Default : Yes
    Alternate group : 1
    Encoded date : UTC 2016-07-16 15:56:56
    Tagged date : UTC 2016-07-16 15:56:59
    Audio #2
    ID : 3
    Format : AAC
    Format/Info : Advanced Audio Codec
    Format profile : LC
    Codec ID : 40
    Duration : 50mn 31s
    Bit rate mode : Variable
    Bit rate : 128 Kbps
    Maximum bit rate : 133 Kbps
    Channel(s) : 2 channels
    Channel positions : Front: L R
    Sampling rate : 48.0 KHz
    Frame rate : 46.875 fps (1024 spf)
    Compression mode : Lossy
    Stream size : 46.3 MiB (7%)
    Language : English
    Default : No
    Alternate group : 1
    Encoded date : UTC 2016-07-16 15:56:57
    Tagged date : UTC 2016-07-16 15:56:59
    Text
    ID : 4
    Format : Timed Text
    Muxing mode : sbtl
    Codec ID : tx3g
    Duration : 49mn 23s
    Bit rate mode : Variable
    Bit rate : 59 bps
    Stream size : 21.5 KiB (0%)
    Language : English
    Default : Yes
    Forced : No
    Alternate group : 2
    Encoded date : UTC 2016-07-16 15:56:59
    Tagged date : UTC 2016-07-16 15:56:59


    Скриншоты для ознакомления




    Звездный путь: Оригинальный Сериал/Star Trek: The Original Series (1966-1969) HDRip [H.264] (сезон 2, серии 1-26 из 26) [MP4|768x576]
    загрузка...
    Рейтинг →
     (голосов: 1, оценка 4/5, голосовать можно 1 раз )

    Другие торренты по теме:

  • Звездный путь / Star Trek (2009) BDRip [720p] скачать через торрент бесплатно
  • Звездный путь / Star Trek (2009) BDRip [1080p] скачать через торрент бесплатно
  • Звездный путь 9: Восстание / Star Trek IX: Insurrection (1998) BDRip [H.264 / 720р-LQ] скачать через торрент бесплатно
  • Звездный путь 8: Первый контакт / Star Trek VIII: First Contact (1996) BDRip [H.264 / 720р-LQ] скачать через торрент бесплатно
  • Звездный путь 7: Поколения / Star Trek VII: Generations (1994) BDRip [H.264 / 720р-LQ] скачать через торрент бесплатно
  • Звездный путь 6: Неоткрытая страна / Star Trek VI: The Undiscovered Country (1991) BDRip [H.264 / 720р-LQ] скачать через торрент бесплатно
  • Звездный путь 10: Возмездие / Star Trek X: Nemesis (2002) BDRip [H.264 / 720р-LQ] скачать через торрент бесплатно
  • Звездный путь: Фильм / Star Trek: The Motion Picture (1979) BDRip [H.264 / 720р-LQ] скачать через торрент бесплатно


    • Комментарии (0):

      Информация

      Информация

        Посетители, находящиеся в группе Гости, не могут оставлять комментарии в данной новости.

        ↓ Меню




        ↓ Опрос

        Вы добавили сайт в закладки?
        Да
        Нет


        Top 10 за месяц (КПК и мобильные)