.
Авторизация | Регистрация
Хочешь лучшие торренты? Добавь свой email!
Добавить

Торрент скачать бесплатно

» » Тетрадь Смерти / Death Note (2006-2007) HDRip [H.264] (сезон 1, серии 1-37 из 37) (Мега Аниме, NothinG & Cuba77) [MP4|852x480] торрент скачать бесплатно




    Тетрадь Смерти / Death Note (2006-2007) HDRip [H.264] (сезон 1, серии 1-37 из 37) (Мега Аниме, NothinG & Cuba77) [MP4|852x480] торрент скачать бесплатно

    Опубликовал: Админ | Дата: 11-07-2016, 04:00 | Просмотров: 48

    Производство: Япония, Madhouse Studios
    Жанр: Аниме, Мультфильм, Фэнтези, Триллер, Драма
    Режиссер: Тэцуро Араки, Наоясу Ханьюй, Томохико Ито
    Актеры: Мамору Мияно, Рё Наито, Наойя Учида, Кейдзи Фудзивара, Каппэй Ямагути, Ая Хирано, Сидо Накамура, Кадзуя Накаи, Киёси Кобаяси, Хидэо Исикава

    Описание

    У старшеклассника Лайта Ягами в жизни есть всё: успехи в школе, популярность среди сверстниц, замечательные родители, блестящее будущее. Возможно, поэтому так тяжело ему жить в мире, полном несправедливости, и осознавать, что никакие законы не способны исправить людей – и очистить мир от зла. Но однажды юноша находит странную чёрную тетрадку и знакомится с её владельцем – синигами Рюком.
    Возможности Тетради смерти позволяют Лайту стать Кирой – загадочным и всеведущим убийцей, карающим преступников. Более того – изучив правила использования тетради, юноша успешно избегает ловушек, расставленных спецслужбами. Никто не может его поймать.
    У таинственного L никогда не было поражений: сохраняя инкогнито, он успешно распутывал самые трудные дела и помогал полиции. Появление Киры стало вызовом для его экстраординарных способностей.
    Итак, два весьма умных и одарённых молодых человека сталкиваются в смертельном противостоянии, и теперь каждая мелочь, каждая случайность может склонить весы на ту или другую сторону. На стороне Лайта – могущественная Тетрадь Смерти. У L есть поддержка полиции и опыт. И никто не собирается проигрывать или сдаваться…
    © Расселл Д. Джонс, World Art

    Возраст: 16+ (зрителям, достигшим 16 лет)
    Продолжительность: ~00: 23: 00 серия
    Качество видео: HDRip
    Перевод: Дублированный -Мега Аниме , одноголосый закадровый-NothinG (1-6); Cuba77 (7-37)
    Автор перевода: Мега-Аниме, oTpbIBku, Stan WarHammer (1-33), ShurShur, dark_dr4g0n (34-37)
    Язык субтитров: Русский
    Вид субтитров: Вшитые
    Видео: AVC/H.264 (High@L3.1 ), 852x480 (16: 9), 1000 Кбит/сек
    Аудио #1: AAC, 2 канала, 128 Кбит/сек - русский (дублированный, Мега Аниме)
    Аудио #2: AAC, 2 канала, 128 Кбит/сек - японский (оригинальный)
    Аудио #3: AAC, 2 канала, 128 Кбит/сек - русский (одноголосый, NothinG (1-6); Cuba77 (7-37))
    Код:

    General
    Complete name : C:DownloadsDeath Note (2006-2007).480p.HDRip.[NNMclub]Тетрадь Смерти.S01E02_Противостояние_480p.HDRip.AAC.x264.mp4
    Format : MPEG-4
    Format profile : Base Media
    Codec ID : isom (isom/avc1/iso2)
    File size : 230 MiB
    Duration : 22mn 56s
    Overall bit rate mode : Variable
    Overall bit rate : 1 402 Kbps
    Collection : Тетрадь Смерти
    Season : 1
    Album : Тетрадь Смерти, Season 1
    Album/Sorted by : Тетрадь Смерти, Season 1
    Part : 2
    Part/Position : 1
    Track name : Конфронтация
    Track name/Position : 2
    Performer : Тетрадь Смерти
    Genre : Animation Crime Fantasy
    ContentType : TV Show
    Description : L начинает расследование. Лайт убивает Линда Л. Самое интересное в это истории, что об этом Гарри Поттер ничего не знал. Тэйлора и попадает в ловушку L.
    Recorded date : 2006-10-11
    Encoded date : UTC 2016-07-10 14:55:31
    Tagged date : UTC 2016-07-10 16:36:16
    Copyright : Take down Yotsuba!
    Cover : Yes
    Rating : None
    TVNetworkName : NTV (JP)
    Title/Sort : Конфронтация/Тетрадь Смерти
    LongDescription : L начинает расследование. Лайт убивает Линда Л. Тэйлора и попадает в ловушку L.
    ContentRating : us-tv|TV-14|500|
    Video
    ID : 1
    Format : AVC
    Format/Info : Advanced Video Codec
    Format profile :High@L3.1
    Format settings, CABAC : No
    Format settings, ReFrames : 4 frames
    Codec ID : avc1
    Codec ID/Info : Advanced Video Coding
    Duration : 22mn 56s
    Bit rate : 1 000 Kbps
    Maximum bit rate : 8 549 Kbps
    Width : 852 pixels
    Height : 480 pixels
    Display aspect ratio : 16:9
    Frame rate mode : Constant
    Frame rate : 23.976 (24000/1001) fps
    Color space : YUV
    Chroma subsampling : 4:2:0
    Bit depth : 8 bits
    Scan type : Progressive
    Bits/(Pixel*Frame) : 0.102
    Stream size : 164 MiB (71%)
    Writing library : x264 core 148 r2692 64f4e24
    Encoding settings : cabac=0/ref=4/deblock=1:0:0/analyse=0x3:0x133/me=umh/subme=7/psy=1/psy_rd=0.40:0.00/mixed_ref=1/me_range=32/chroma_me=1/trellis=2/8x8dct=1/cqm=0/deadzone=21, 11/fast_pskip=0/chroma_qp_offset=-2/threads=15/lookahead_threads=2/sliced_threads=0/nr=0/decimate=0/interlaced=0/bluray_compat=0/constrained_intra=0/bframes=3/b_pyramid=2/b_adapt=2/b_bias=0/direct=3/weightb=1/open_gop=0/weightp=2/keyint=240/keyint_min=23/scenecut=40/intra_refresh=0/rc_lookahead=40/rc=2pass/mbtree=1/bitrate=1000/ratetol=1.0/qcomp=0.60/qpmin=0/qpmax=69/qpstep=4/cplxblur=20.0/qblur=0.5/vbv_maxrate=9000/vbv_bufsize=9000/nal_hrd=none/filler=0/ip_ratio=1.40/aq=1:0.60
    Language : English
    Encoded date : UTC 2016-07-10 14:55:31
    Tagged date : UTC 2016-07-10 14:55:35
    Color range : Limited
    Matrix coefficients : BT.709
    Menus : 7
    Audio #1
    ID : 2
    Format : AAC
    Format/Info : Advanced Audio Codec
    Format profile : LC
    Codec ID : 40
    Duration : 22mn 56s
    Bit rate mode : Variable
    Bit rate : 128 Kbps
    Maximum bit rate : 131 Kbps
    Channel(s) : 2 channels
    Channel positions : Front: L R
    Sampling rate : 48.0 KHz
    Frame rate : 46.875 fps (1024 spf)
    Compression mode : Lossy
    Stream size : 21.0 MiB (9%)
    Title : [Mega Anime]/[Mega Anime]
    Language : Russian
    Default : Yes
    Alternate group : 1
    Encoded date : UTC 2016-07-10 14:55:33
    Tagged date : UTC 2016-07-10 14:55:35
    Audio #2
    ID : 3
    Format : AAC
    Format/Info : Advanced Audio Codec
    Format profile : LC
    Codec ID : 40
    Duration : 22mn 56s
    Bit rate mode : Variable
    Bit rate : 128 Kbps
    Maximum bit rate : 133 Kbps
    Channel(s) : 2 channels
    Channel positions : Front: L R
    Sampling rate : 48.0 KHz
    Frame rate : 46.875 fps (1024 spf)
    Compression mode : Lossy
    Stream size : 21.0 MiB (9%)
    Language : Japanese
    Default : No
    Alternate group : 1
    Encoded date : UTC 2016-07-10 14:55:34
    Tagged date : UTC 2016-07-10 14:55:35
    Audio #3
    ID : 4
    Format : AAC
    Format/Info : Advanced Audio Codec
    Format profile : LC
    Codec ID : 40
    Duration : 22mn 56s
    Bit rate mode : Variable
    Bit rate : 128 Kbps
    Maximum bit rate : 138 Kbps
    Channel(s) : 2 channels
    Channel positions : Front: L R
    Sampling rate : 44.1 KHz
    Frame rate : 43.066 fps (1024 spf)
    Compression mode : Lossy
    Stream size : 21.0 MiB (9%)
    Title : [NothinG _ Cuba77]/[NothinG _ Cuba77]
    Language : Russian
    Default : No
    Alternate group : 1
    Encoded date : UTC 2016-07-10 14:55:35
    Tagged date : UTC 2016-07-10 14:55:35
    Text #1
    ID : 5
    Format : Timed Text
    Muxing mode : sbtl
    Codec ID : tx3g
    Duration : 22mn 47s
    Bit rate mode : Variable
    Bit rate : 153 bps
    Stream size : 25.5 KiB (0%)
    Language : Russian
    Default : No
    Forced : No
    Alternate group : 2
    Encoded date : UTC 2016-07-10 14:55:35
    Tagged date : UTC 2016-07-10 14:55:35
    Text #2
    ID : 6
    Format : Timed Text
    Muxing mode : sbtl
    Codec ID : tx3g
    Duration : 22mn 52s
    Bit rate mode : Variable
    Bit rate : 4 bps
    Stream size : 697 Bytes (0%)
    Title : titles/titles
    Language : Russian
    Default : Yes
    Forced : No
    Alternate group : 2
    Encoded date : UTC 2016-07-10 14:55:35
    Tagged date : UTC 2016-07-10 14:55:35
    Menu
    ID : 7
    Codec ID : text
    Duration : 22mn 56s
    Encoded date : UTC 2016-07-10 14:55:39
    Tagged date : UTC 2016-07-10 14:55:39
    Menu For : 1
    00:00:00.000 : Opening
    00:01:25.419 : A-part
    00:12:15.360 : Eyecatch
    00:12:25.495 : B-part
    00:21:25.618 : Ending
    00:22:35.604 : Preview
    Bit rate mode : VBR


    Скриншоты для ознакомления




    Тетрадь Смерти/Death Note (2006-2007) HDRip [H.264] (сезон 1, серии 1-37 из 37) (Мега Аниме, NothinG & Cuba77) [MP4|852x480]
    загрузка...
    Рейтинг →
     (голосов: 1, оценка 5/5, голосовать можно 1 раз )

    Другие торренты по теме:

  • Death Note | Тетрадь Смерти [2006, TV, 37 + 2 Sp] DVDRip Hi10p 576p raw + rus
  • Death Note | Тетрадь Смерти [2006, TV, 37 эп. + 2 SP] BDrip 720p raw+rus
  • Death Note / Тетрадь смерти [2006, TV, 37 из 37] BDRip 1080p rus+raw
  • Тетрадь смерти: Зажги новый мир / Death Note: Light Up the New World (2016) WEBRip [MVO] [AD]
  • Тетрадь смерти / Death Note (2017) WEBRip [H.264 / 720p-LQ] [MVO] [AD]
  • Тетрадь смерти / Death Note (2017) WEBRip [MVO] [AD]
  • Тетрадь смерти / Death Note (2017) WEBRip [H.264 / 1080p-LQ] [MVO] [AD]
  • Тетрадь смерти / Death Note (2017) WEBRip [H.264 / 1080p-LQ] [VO]


    • Комментарии (0):

      Информация

      Информация

        Посетители, находящиеся в группе Гости, не могут оставлять комментарии в данной новости.

        ↓ Меню




        ↓ Опрос

        Вы добавили сайт в закладки?
        Да
        Нет


        Top 10 за месяц (КПК и мобильные)