.
Авторизация | Регистрация
Хочешь лучшие торренты? Добавь свой email!
Добавить

Торрент скачать бесплатно

» » Гравити Фоллз / Gravity Falls (2016) HDRip [H.264] (сезон 2, серии 1-20 из 20) [MP4|1280x720] торрент скачать бесплатно




    Гравити Фоллз / Gravity Falls (2016) HDRip [H.264] (сезон 2, серии 1-20 из 20) [MP4|1280x720] торрент скачать бесплатно

    Опубликовал: Админ | Дата: 10-07-2016, 04:00 | Просмотров: 42

    Производство: США/Walt Disney Television Animation
    Жанр: Компьютерная анимация, Детский, Приключения
    Режиссер: Джо Питт, Джон Аошима, Мэтт Брэли
    Актеры: Джейсон Риттер, Алекс Хирш, Кристен Шаал, Линда Карделлини, Кевин Майкл Ричардсон, Мэтт Чэпман, Кари Уолгрен, Джон Ди Маджио, Кит Фергюсон, Грегг Теркингтон и др.

    Описание

    История рассказывает о приключениях близнецов, брата и сестры Диппера и Мэйбл Пайнс, чьи летние планы отправляются в чулан, когда родители оправляют их к дальнему родственнику в тихий городок Гравити Фолз. Но так ли прост этот город, родственник и жители, и какие тайны ждут своих первооткрывателей?
    Второй сезон завершает эту историю.

    Возраст: 12+ (зрителям, достигшим 12 лет)
    Рейтинг MPAA: PG (рекомендуется присутствие родителей)
    Продолжительность: ~00: 22: 00 серия
    Качество видео: HDRip
    Перевод: Дублированный
    Видео: AVC/H.264, 1280x720, ~1980 Кбит/сек
    Аудио: AAC, 2 канала, 152 Кбит/сек
    Код:

    Полное имя : E:Gravity Falls season 2Graviry Falls 01.mp4
    Формат : MPEG-4
    Профиль формата : Base Media
    Идентификатор кодека : isom (isom/iso2/avc1/mp41)
    Размер файла : 345 Мбайт
    Продолжительность : 22 м.
    Режим общего битрейта : Переменный
    Общий поток : 2141 Кбит/сек
    Программа кодирования : Lavf56.25.101
    Видео
    Идентификатор : 1
    Формат : AVC
    Формат/Информация : Advanced Video Codec
    Профиль формата :High@L3.1
    Параметр CABAC формата : Да
    Параметр ReFrames формата : 4 кадра
    Идентификатор кодека : avc1
    Идентификатор кодека/Информация : Advanced Video Coding
    Продолжительность : 22 м.
    Битрейт : 1980 Кбит/сек
    Ширина : 1280 пикселей
    Высота : 720 пикселей
    Соотношение сторон : 16:9
    Режим частоты кадров : Постоянный
    Частота кадров : 30, 000 кадров/сек
    Цветовое пространство : YUV
    Субдискретизация насыщенности : 4:2:0
    Битовая глубина : 8 бит
    Тип развёртки : Прогрессивная
    Бит/(Пиксели*Кадры) : 0.072
    Размер потока : 320 Мбайт (93%)
    Библиотека кодирования : x264 core 142
    Настройки программы : cabac=1/ref=3/deblock=1:0:0/analyse=0x3:0x113/me=hex/subme=7/psy=1/psy_rd=1.00:0.00/mixed_ref=1/me_range=16/chroma_me=1/trellis=1/8x8dct=1/cqm=0/deadzone=21, 11/fast_pskip=1/chroma_qp_offset=-2/threads=4/lookahead_threads=1/sliced_threads=0/nr=0/decimate=1/interlaced=0/bluray_compat=0/constrained_intra=0/bframes=3/b_pyramid=2/b_adapt=1/b_bias=0/direct=1/weightb=1/open_gop=0/weightp=2/keyint=30/keyint_min=3/scenecut=40/intra_refresh=0/rc_lookahead=30/rc=2pass/mbtree=1/bitrate=1980/ratetol=1.0/qcomp=0.60/qpmin=0/qpmax=69/qpstep=4/cplxblur=20.0/qblur=0.5/ip_ratio=1.40/aq=1:1.00
    Аудио
    Идентификатор : 2
    Формат : AAC
    Формат/Информация : Advanced Audio Codec
    Профиль формата : LC
    Идентификатор кодека : 40
    Продолжительность : 22 м.
    Duration_LastFrame : -4 мс.
    Вид битрейта : Переменный
    Битрейт : 152 Кбит/сек
    Максимальный битрейт : 192 Кбит/сек
    Каналы : 2 канала
    Расположение каналов : Front: L R
    Частота : 44, 1 КГц
    Частота кадров : 43, 066 кадра/сек (1024 spf)
    Метод сжатия : С потерями
    Размер потока : 24, 5 Мбайт (7%)
    Default : Да
    Alternate group : 1
    Скриншоты:


    Все релизы сериала Gravity Falls
    Время раздачи: с 10: 00 до 00: 00 (до появления первых 3-5 скачавших)

    Гравити Фоллз/Gravity Falls (2016) HDRip [H.264] (сезон 2, серии 1-20 из 20) [MP4|1280x720]
    загрузка...
    Рейтинг →
     (голосов: 1, оценка 3/5, голосовать можно 1 раз )

    Другие торренты по теме:

  • Грэвити Фоллс / Гравити Фолз / Gravity Falls (2014) WEB-DL [720p] (2 сезон, 8 серий из 20) [обновляемая]
  • Грэвити Фоллс / Гравити Фолз / Gravity Falls (2014) WEB-DL [720p] (2 сезон, 8 серий из 20) [обновляемая]
  • Грэвити Фоллс / Гравити Фолз / Gravity Falls (2014-2015) WEB-DLRip (2 сезон, 6 серий из 20) [LE-Production] (Обновляемая)
  • Грэвити Фоллс / Гравити Фолз / Gravity Falls (2014-2016) WEB-DL [720p] (2 сезон, 20 серий из 20) + BONUS


    • Комментарии (0):

      Информация

      Информация

        Посетители, находящиеся в группе Гости, не могут оставлять комментарии в данной новости.

        ↓ Меню




        ↓ Опрос

        Вы добавили сайт в закладки?
        Да
        Нет


        Top 10 за месяц (КПК и мобильные)