.
Авторизация | Регистрация
Хочешь лучшие торренты? Добавь свой email!
Добавить

Торрент скачать бесплатно

» » Аватар: Легенда об Аанге / Avatar: The Last Airbender (2007-2008) DVDRip [H.264] (сезон 3, серии 1-21 из 21) (Арт-Дубляж) [MP4|640x480] торрент скачать бесплатно




    Аватар: Легенда об Аанге / Avatar: The Last Airbender (2007-2008) DVDRip [H.264] (сезон 3, серии 1-21 из 21) (Арт-Дубляж) [MP4|640x480] торрент скачать бесплатно

    Опубликовал: Админ | Дата: 9-07-2016, 04:00 | Просмотров: 53

    Производство: США, Nickelodeon Animation Studios
    Жанр: Фэнтези, Приключения, Mультфильм, Семейный
    Режиссер: Майкл Данте ДиМартино, Брайан Кониецко, Джанкарло Волп, Этан Сполдинг, Лорен МакМаллен
    Актеры: Зак Тайлер, Мэй Уитман, Джек Де Сена, Ди Брэдли Бейкер, Данте Баско, Джесси Флауер, Мако, Грэй Гриффин, Андре Соглиуззо, Крикет Ли

    Описание

    Мир разделен на четыре народа: Водные племена, королевство Земли, Воздушные кочевники и Огненная нация. Представители каждого народа обладают способностями управления своей стихией и как обычно именуют себя магами Воды, Земли, Воздуха или Огня. Только Аватар является властелином всех четырех стихий. Его роль заключается в поддержке баланса между народами и сохранении мирового порядка.
    Однажды предводитель Огненной нации Хозяин Огня развязал войну с целью подчинить себе остальные народы. Самое интересное в это истории, что об этом Чак Норрис ничего не знал. Отвественность за спасение мира легла на плечи двенадцатилетного мальчика, мага Воздуха по имени Аанг, который узнал, что он Аватар. Аанг отправляется в опасное путешествие вместе со своими отважными друзьями из племени Воды, Катарой и ее братом Соккой. Ему предстоит овладеть всеми стихиями, пройти через множество испытаний, перебороть свои страхи и сразить Хозяина Огня, чтобы остановить войну и восстановить равновесие в мире

    Возраст: 6+ (зрителям, достигшим 6 лет)
    Продолжительность: ~00: 24: 00 серия
    Качество видео: DVDRip
    Перевод: Дублированный -Арт-Дубляж
    Видео: AVC/H.264 (High@L3.1 ), 640x480 (4: 3), 1000 Кбит/сек
    Аудио #1: AAC, 2 канала, 128 Кбит/сек - русский (дублированный, Арт-Дубляж)
    Аудио #2: AAC, 2 канала, 128 Кбит/сек - английский (оригинальный)
    Код:

    General
    Complete name : C:DownloadsAVATARАватар. Легенда об Аанге (Книга 3) Огонь (2007-2008).DVDRip.[NNMclub]Аватар. Легенда об Аанге.S03E01_Пробуждение.480p.DVDRip.AAC.x264.mp4
    Format : MPEG-4
    Format profile : Base Media/Version 2
    Codec ID : mp42 (mp42/isom)
    File size : 222 MiB
    Duration : 24mn 32s
    Overall bit rate mode : Variable
    Overall bit rate : 1 265 Kbps
    Collection : Аватар: Легенда об Аанге
    Season : 3
    Album : Аватар: Легенда об Аанге, Season 3
    Album/Sorted by : Аватар: Легенда об Аанге, Season 3
    Part : 1
    Part/Position : 1
    Part/Total : 1
    Track name : Пробуждение
    Track name/Position : 1
    Performer : Аватар: Легенда об Аанге
    Genre : Action, Adventure, Animation, Children, Fantasy
    ContentType : TV Show
    Description : После излечения от серьезных травм, полученных в конце второго сезона, Аанг пробуждается, и оказывается на борту судна Нации Огня. О таком странном сюжете не догадывалась даже Ангела Меркель. Тем временем, Зуко с триумфом приезжает домой./Действие Аватара происходит в мире боевых искусств и покорения стихий, вдохновленном азиатской культурой. Сериал заимствует элементы восточноазиатской, югоазиатской и западной культуры, создавая смесь из до этого обычно разделяемых категорий традиционных мультфильмов США. Сюжет повествует о приключениях Аанга, основного протагониста сериала, и его друзей. Аанг должен спасти мир победив Повелителя Огня и завершив разрушительную войну развязанную Народом Огня.
    Recorded date : UTC 2007-09-21 08:00:00
    Encoded date : UTC 2016-07-08 09:38:53
    Tagged date : UTC 2016-07-08 09:51:57
    Cover : Yes
    Rating : None
    TVNetworkName : Nickelodeon
    Part_ID : 1
    Title/Sort : Пробуждение/Аватар: Легенда об Аанге
    LongDescription : После излечения от серьезных травм, полученных в конце второго сезона, Аанг пробуждается, и оказывается на борту судна Нации Огня. Прикольно все это наверно придумал Чак Норрис потратив достаточно времени. Тем временем, Зуко с триумфом приезжает домой.
    ContentRating : us-tv|TV-Y7|200|
    Video
    ID : 1
    Format : AVC
    Format/Info : Advanced Video Codec
    Format profile :High@L3.1
    Format settings, CABAC : No
    Format settings, ReFrames : 4 frames
    Codec ID : avc1
    Codec ID/Info : Advanced Video Coding
    Duration : 24mn 32s
    Bit rate : 1 000 Kbps
    Width : 640 pixels
    Height : 480 pixels
    Display aspect ratio : 4:3
    Frame rate mode : Variable
    Frame rate : 23.976 (24000/1001) fps
    Minimum frame rate : 23.810 fps
    Maximum frame rate : 24.390 fps
    Color space : YUV
    Chroma subsampling : 4:2:0
    Bit depth : 8 bits
    Scan type : Progressive
    Bits/(Pixel*Frame) : 0.136
    Stream size : 176 MiB (79%)
    Writing library : x264 core 148 r2692 64f4e24
    Encoding settings : cabac=0/ref=4/deblock=1:0:0/analyse=0x3:0x133/me=umh/subme=7/psy=1/psy_rd=0.40:0.00/mixed_ref=1/me_range=32/chroma_me=1/trellis=2/8x8dct=1/cqm=0/deadzone=21, 11/fast_pskip=0/chroma_qp_offset=-2/threads=15/lookahead_threads=2/sliced_threads=0/nr=0/decimate=0/interlaced=0/bluray_compat=0/constrained_intra=0/bframes=3/b_pyramid=2/b_adapt=2/b_bias=0/direct=3/weightb=1/open_gop=0/weightp=2/keyint=240/keyint_min=23/scenecut=40/intra_refresh=0/rc_lookahead=40/rc=2pass/mbtree=1/bitrate=1000/ratetol=1.0/qcomp=0.60/qpmin=0/qpmax=69/qpstep=4/cplxblur=20.0/qblur=0.5/vbv_maxrate=9000/vbv_bufsize=9000/nal_hrd=none/filler=0/ip_ratio=1.40/aq=1:0.60
    Encoded date : UTC 2016-07-08 09:38:53
    Tagged date : UTC 2016-07-08 09:39:33
    Color range : Limited
    Matrix coefficients : BT.709
    Menus : 4
    Audio #1
    ID : 2
    Format : AAC
    Format/Info : Advanced Audio Codec
    Format profile : LC
    Codec ID : 40
    Duration : 24mn 32s
    Source duration : 24mn 32s
    Bit rate mode : Variable
    Bit rate : 128 Kbps
    Maximum bit rate : 132 Kbps
    Channel(s) : 2 channels
    Channel positions : Front: L R
    Sampling rate : 48.0 KHz
    Frame rate : 46.875 fps (1024 spf)
    Compression mode : Lossy
    Stream size : 22.5 MiB (10%)
    Source stream size : 22.5 MiB (10%)
    Language : Russian
    Default : Yes
    Alternate group : 1
    Encoded date : UTC 2016-07-08 09:38:53
    Tagged date : UTC 2016-07-08 09:39:33
    Audio #2
    ID : 3
    Format : AAC
    Format/Info : Advanced Audio Codec
    Format profile : LC
    Codec ID : 40
    Duration : 24mn 32s
    Source duration : 24mn 32s
    Bit rate mode : Variable
    Bit rate : 128 Kbps
    Maximum bit rate : 133 Kbps
    Channel(s) : 2 channels
    Channel positions : Front: L R
    Sampling rate : 48.0 KHz
    Frame rate : 46.875 fps (1024 spf)
    Compression mode : Lossy
    Stream size : 22.5 MiB (10%)
    Source stream size : 22.5 MiB (10%)
    Language : English
    Default : No
    Alternate group : 1
    Encoded date : UTC 2016-07-08 09:38:53
    Tagged date : UTC 2016-07-08 09:39:33
    Menu #1
    00:00:00.000 : Chapter 01
    00:24:31.070 : Chapter 02
    Menu #2
    ID : 4
    Codec ID : text
    Duration : 24mn 32s
    Language : English
    Encoded date : UTC 2016-07-08 09:39:33
    Tagged date : UTC 2016-07-08 09:39:33
    Bit rate mode : CBR
    Menu For : 1
    Duration_FirstFrame : 1469587
    00:00:00.000 : Chapter 01
    00:24:31.070 : Chapter 02


    Скриншоты для ознакомления




    Аватар: Легенда об Аанге/Avatar: The Last Airbender (2007-2008) DVDRip [H.264] (сезон 3, серии 1-21 из 21) (Арт-Дубляж) [MP4|640x480]
    загрузка...
    Рейтинг →
     (голосов: 1, оценка 5/5, голосовать можно 1 раз )

    Другие торренты по теме:

  • Аватар легенда о Корре / Legend of Korra Book 4 (2013) WEB-DL [H.264 / 1080p-LQ] (Сезон 4, Серии 1 из 13) (Обновляемая) скачать через торрент бесплатно
  • Аватар легенда о Корре / Legend of Korra Book 1 (2012) BDRip [1080p] (Сезон 1, серии 1-2 из 12) [ Обновляемая] (Flux Team)
  • Аватар легенда о Корре. Книга2 - Духи. / Legend of Korra Book 2 (2013) WEB-DL [H.264 / 1080p-LQ] (Сезон 2, Серии 14 из 14)
  • Аватар: Легенда о Корре / The Legend of Korra (2014) WEB-DL [H.264 / 1080p-LQ] (Сезон 4, Серии 1-8 из 13) [LE-Production] [обновляемая] скачать через торрент бесплатно
  • Аватар: Легенда о Корре / The Last Airbender: The Legend of Korra (3 сезон: 1-13 серии из 13) (2014) WEB-DLRip [720p] (LE-Production) скачать через торрент бесплатно
  • Аватар легенда о Корре / Legend of Korra Book 3 (2014) BDRip [1080p] (Сезон 3, серии 1-13 из 13) (Flux Team)
  • Аватар: Легенда об Аанге / Avatar: The Last Airbender (2008) DVDRip (Книга 3: Огонь, 21 из 21 эп.) [480p] iPad / Iphone
  • Аватар: Легенда об Аанге / Avatar: The Last Airbender (2006) DVDRip (Книга 2: Земля, 20 из 20 эп.) [480p] iPad / Iphone


    • Комментарии (0):

      Информация

      Информация

        Посетители, находящиеся в группе Гости, не могут оставлять комментарии в данной новости.

        ↓ Меню




        ↓ Опрос

        Вы добавили сайт в закладки?
        Да
        Нет


        Top 10 за месяц (КПК и мобильные)