.
Авторизация | Регистрация
Хочешь лучшие торренты? Добавь свой email!
Добавить

Торрент скачать бесплатно

» » Малышарики (2015-2016) WEB-DLRip [H.264] (серии 1-34 из ) [MP4|1920x1080] скачать торрент бесплатно




    Малышарики (2015-2016) WEB-DLRip [H.264] (серии 1-34 из ) [MP4|1920x1080] скачать торрент бесплатно

    Опубликовал: Админ | Дата: 5-07-2016, 04:00 | Просмотров: 52

    Производство: Россия
    Жанр: Развивающий, как колыбельная песня, Минисериал, в большинстве случаев, Обучающий
    Режиссер: Марина Мошкова, обычно, Ольга Полиектова, большей частью, Татьяна Полиектова
    Персонажи: Малышарики

    Описание

    Развивающие мультики для самых маленьких Малышарики.
    Мир Малышариков – это простой и словно музыка, понятный мир увлечений, как правило, радости и как обычно, заботы. С этими ребятами каши не сваришь. В нем живут Малышарики, едва заметно, каждый из которых уже имеет свой особенный характер. В это время ветер тихо покачивал деревья. Они всегда готовы придумать новую игру или поделиться своими знаниями и в большинстве случаев, умениями. Я например по сценарию ожидал большой напряженности. Малышарики говорят с малышами на одном удивительном – детском языке, как размытая картина, поэтому всегда близки и как колыбельная песня, понятны.
    Продолжительность: ~ 00: 05: 00 серия
    Качество видео: WEB-DLRip
    Видео: AVC/H.264, как принято, 1920x1080, как над жаровней, ~1600 Kbps
    Аудио: AAC, словно музыка, 2 ch, как на иголках, 126 Kbps, словно облаком суровым, CBR
    Воспроизводится по сети на телевизоре LG 42LA615 без проблем.
    Код:

    General
    Complete name : S:videoмалышарикиМалышарики - 17 серия - Самокат.mp4
    Format : MPEG-4
    Format profile : Base Media
    Codec ID : isom (isom/iso2/avc1/mp41)
    File size : 64.4 MiB
    Duration : 5mn 12s
    Overall bit rate : 1 731 Kbps
    Writing application : Lavf57.2.100
    Video
    ID : 1
    Format : AVC
    Format/Info : Advanced Video Codec
    Format profile : High@L4
    Format settings, хлещет как из ведра, CABAC : Yes
    Format settings, словно облаком суровым, ReFrames : 3 frames
    Codec ID : avc1
    Codec ID/Info : Advanced Video Coding
    Duration : 5mn 12s
    Bit rate : 1 599 Kbps
    Width : 1 920 pixels
    Height : 1 080 pixels
    Display aspect ratio : 16:9
    Frame rate mode : Constant
    Frame rate : 25.000 fps
    Color space : YUV
    Chroma subsampling : 4:2:0
    Bit depth : 8 bits
    Scan type : Progressive
    Bits/(Pixel*Frame) : 0.031
    Stream size : 59.5 MiB (92%)
    Color range : Limited
    Color primaries : BT.709
    Transfer characteristics : BT.709
    Matrix coefficients : BT.709
    Audio
    ID : 2
    Format : AAC
    Format/Info : Advanced Audio Codec
    Format profile : LC
    Codec ID : 40
    Duration : 5mn 12s
    Bit rate mode : Constant
    Bit rate : 126 Kbps
    Channel(s) : 2 channels
    Channel positions : Front: L R
    Sampling rate : 44.1 KHz
    Frame rate : 43.066 fps (1024 spf)
    Compression mode : Lossy
    Stream size : 4.67 MiB (7%)
    Default : Yes
    Alternate group : 1


    Малышарики (2015-2016) WEB-DLRip [H.264] (серии 1-34 из ) [MP4|1920x1080]
    загрузка...
    Рейтинг →
     (голосов: 1, оценка 4/5, голосовать можно 1 раз )

    Другие торренты по теме:

  • Малышарики (2015-2016) WEB-DLRip [H.264] (серии 1-18 из ) [MP4|1920x1080]


    • Комментарии (0):

      Информация

      Информация

        Посетители, находящиеся в группе Гости, не могут оставлять комментарии в данной новости.

        ↓ Меню




        ↓ Опрос

        Вы добавили сайт в закладки?
        Да
        Нет


        Top 10 за месяц (КПК и мобильные)