.
Авторизация | Регистрация
Хочешь лучшие торренты? Добавь свой email!
Добавить

Торрент скачать бесплатно

» » Легенда о Корре / The Legend of Korra (2014) WEB-DLRip [H.264] (сезон 4, серии 1-13 из 13) (Flux Team, SDI sun-studio) [MP4|640x480@852x480] торрент скачать бесплатно




    Легенда о Корре / The Legend of Korra (2014) WEB-DLRip [H.264] (сезон 4, серии 1-13 из 13) (Flux Team, SDI sun-studio) [MP4|640x480@852x480] торрент скачать бесплатно

    Опубликовал: Админ | Дата: 4-07-2016, 04:00 | Просмотров: 44

    Производство: США, Nickelodeon Animation Studios
    Жанр: Фэнтези, Приключения, Mультфильм, Семейный
    Режиссер: Майкл Данте ДиМартино, Брайан Кониецко
    Актеры: Джанет Вэрни, Ди Брэдли Бейкер, Джефф Беннетт, Дэвид Фаустино, П.Дж. Бирн, Дж.К. Симмонс, Сейшелл Гэбриел, Кирнан Шипка, Минди Стерлинг, Логан Уэллс

    Описание

    В финале Третьей Книги для того, чтобы спасти мир, Аватар Корра сумела одолеть опасного противника, но эта победа досталась ей очень тяжело. Сломленная, она готовится начать новое путешествие в поисках самопознания и выживания в мире, где сильные нападают на слабых. Когда же появляется агрессивная военная сила во главе с жаждущей власти Кувирой и судьба Царства Земли повисает на волоске, только Аватар может всё исправить.

    Возраст: 6+ (зрителям, достигшим 6 лет)
    Продолжительность: ~00: 24: 00 серия
    Качество видео: WEB-DLRip
    Перевод: Многоголосый закадровый -Flux Team , дублированный -SDI sun-studio
    Автор перевода: HelenZubr, в редакции AndreyP - Flux Team
    Язык субтитров: Русский, Английский
    Вид субтитров: Вшитые
    Видео: AVC/H.264 (High@L3.1 ), 640x480@852x480 (16: 9), 800 Кбит/сек
    Аудио #1: AAC, 2 канала, 128 Кбит/сек - русский (многоголосый закадровый, Flux Team)
    Аудио #2: AAC, 2 канала, 128 Кбит/сек - русский (дублированный, SDI sun-studio)
    Аудио #3: AAC, 2 канала, 128 Кбит/сек - английский (оригинальный)
    Код:

    General
    Complete name : C:DownloadsAVATARАватар Легенда о Корре (Книга 4) Равновесие (2014).480p.WEB-DLRip.[NNMclub]Легенда о Корре.S04E01_После стольких лет.480p.WEB-DLRip.AAC.x264.mp4
    Format : MPEG-4
    Format profile : Base Media
    Codec ID : isom (isom/avc1/iso2)
    File size : 195 MiB
    Duration : 22mn 52s
    Overall bit rate mode : Variable
    Overall bit rate : 1 193 Kbps
    Collection : Аватар: Легенда о Корре
    Season : 4
    Album : Аватар: Легенда о Корре, Season 4
    Album/Sorted by : Аватар: Легенда о Корре, Season 4
    Part : 1
    Part/Position : 4
    Track name : После стольких лет
    Track name/Position : 1
    Performer : Аватар: Легенда о Корре
    Genre : Animation, Action, Adventure
    ContentType : TV Show
    Description : С момента победы Корры над Захиром прошло три года, и многое изменилось с тех пор. Пока Болин и Варик помогают Кувире объединять провинции царства Земли, Мако приставили охранять принца Ву, будущего Царя Земли, Асами с головой ушла в дела компании Ин
    Recorded date : UTC 2014-10-03 16:58:11
    Encoded date : UTC 2016-07-02 22:23:39
    Tagged date : UTC 2016-07-03 06:16:15
    Cover : Yes
    Comment : There\'s a new Avatar in town!
    Rating : None
    TVNetworkName : Nickelodeon
    Part_ID : 401
    Title/Sort : После стольких лет/Аватар: Легенда о Корре
    LongDescription : С момента победы Корры над Захиром прошло три года, и многое изменилось с тех пор. Пока Болин и Варик помогают Кувире объединять провинции царства Земли, Мако приставили охранять принца Ву, будущего Царя Земли, Асами с головой ушла в дела компании Инду...
    ContentRating : us-tv|TV-Y7|200|
    Video
    ID : 1
    Format : AVC
    Format/Info : Advanced Video Codec
    Format profile :High@L3.1
    Format settings, CABAC : No
    Format settings, ReFrames : 4 frames
    Codec ID : avc1
    Codec ID/Info : Advanced Video Coding
    Duration : 22mn 52s
    Bit rate : 800 Kbps
    Maximum bit rate : 4 309 Kbps
    Width : 640 pixels
    Height : 480 pixels
    Display aspect ratio : 16:9
    Original display aspect rat : 16:9
    Frame rate mode : Constant
    Frame rate : 23.976 (24000/1001) fps
    Color space : YUV
    Chroma subsampling : 4:2:0
    Bit depth : 8 bits
    Scan type : Progressive
    Bits/(Pixel*Frame) : 0.109
    Stream size : 131 MiB (67%)
    Writing library : x264 core 148 r2692 64f4e24
    Encoding settings : cabac=0/ref=4/deblock=1:0:0/analyse=0x3:0x133/me=umh/subme=7/psy=1/psy_rd=0.40:0.00/mixed_ref=1/me_range=32/chroma_me=1/trellis=2/8x8dct=1/cqm=0/deadzone=21, 11/fast_pskip=0/chroma_qp_offset=-2/threads=12/lookahead_threads=2/sliced_threads=0/nr=0/decimate=0/interlaced=0/bluray_compat=0/constrained_intra=0/bframes=3/b_pyramid=2/b_adapt=2/b_bias=0/direct=3/weightb=1/open_gop=0/weightp=2/keyint=240/keyint_min=23/scenecut=40/intra_refresh=0/rc_lookahead=40/rc=2pass/mbtree=1/bitrate=800/ratetol=1.0/qcomp=0.60/qpmin=0/qpmax=69/qpstep=4/cplxblur=20.0/qblur=0.5/vbv_maxrate=9000/vbv_bufsize=9000/nal_hrd=none/filler=0/ip_ratio=1.40/aq=1:0.60
    Language : English
    Encoded date : UTC 2016-07-02 22:23:39
    Tagged date : UTC 2016-07-02 22:23:43
    Color range : Limited
    Transfer characteristics : BT.709
    Audio #1
    ID : 2
    Format : AAC
    Format/Info : Advanced Audio Codec
    Format profile : LC
    Codec ID : 40
    Duration : 22mn 52s
    Bit rate mode : Variable
    Bit rate : 128 Kbps
    Maximum bit rate : 132 Kbps
    Channel(s) : 2 channels
    Channel positions : Front: L R
    Sampling rate : 48.0 KHz
    Frame rate : 46.875 fps (1024 spf)
    Compression mode : Lossy
    Stream size : 20.9 MiB (11%)
    Title : MVO [Flux Team]/MVO [Flux Team]
    Language : Russian
    Default : Yes
    Alternate group : 1
    Encoded date : UTC 2016-07-02 22:23:41
    Tagged date : UTC 2016-07-02 22:23:43
    Audio #2
    ID : 3
    Format : AAC
    Format/Info : Advanced Audio Codec
    Format profile : LC
    Codec ID : 40
    Duration : 22mn 52s
    Bit rate mode : Variable
    Bit rate : 128 Kbps
    Maximum bit rate : 133 Kbps
    Channel(s) : 2 channels
    Channel positions : Front: L R
    Sampling rate : 48.0 KHz
    Frame rate : 46.875 fps (1024 spf)
    Compression mode : Lossy
    Stream size : 20.9 MiB (11%)
    Title : MVO [Flux Team]/MVO [Flux Team]
    Language : Russian
    Default : No
    Alternate group : 1
    Encoded date : UTC 2016-07-02 22:23:42
    Tagged date : UTC 2016-07-02 22:23:43
    Audio #3
    ID : 4
    Format : AAC
    Format/Info : Advanced Audio Codec
    Format profile : LC
    Codec ID : 40
    Duration : 22mn 52s
    Bit rate mode : Variable
    Bit rate : 128 Kbps
    Maximum bit rate : 133 Kbps
    Channel(s) : 2 channels
    Channel positions : Front: L R
    Sampling rate : 48.0 KHz
    Frame rate : 46.875 fps (1024 spf)
    Compression mode : Lossy
    Stream size : 20.9 MiB (11%)
    Language : English
    Default : No
    Alternate group : 1
    Encoded date : UTC 2016-07-02 22:23:42
    Tagged date : UTC 2016-07-02 22:23:43
    Text #1
    ID : 5
    Format : Timed Text
    Muxing mode : sbtl
    Codec ID : tx3g
    Duration : 22mn 15s
    Bit rate mode : Variable
    Bit rate : 148 bps
    Stream size : 24.2 KiB (0%)
    Language : Russian
    Default : Yes
    Forced : No
    Alternate group : 2
    Encoded date : UTC 2016-07-02 22:23:43
    Tagged date : UTC 2016-07-02 22:23:43
    Text #2
    ID : 6
    Format : Timed Text
    Muxing mode : sbtl
    Codec ID : tx3g
    Duration : 22mn 15s
    Bit rate mode : Variable
    Bit rate : 89 bps
    Stream size : 14.5 KiB (0%)
    Language : English
    Default : No
    Forced : No
    Alternate group : 2
    Encoded date : UTC 2016-07-02 22:23:43
    Tagged date : UTC 2016-07-02 22:23:43


    Скриншоты для ознакомления




    Легенда о Корре/The Legend of Korra (2014) WEB-DLRip [H.264] (сезон 4, серии 1-13 из 13) (Flux Team, SDI sun-studio) [MP4|640x480@852x480]
    загрузка...
    Рейтинг →
     (голосов: 1, оценка 3/5, голосовать можно 1 раз )

    Другие торренты по теме:

  • Аватар легенда о Корре / Legend of Korra Book 4 (2013) WEB-DL [H.264 / 1080p-LQ] (Сезон 4, Серии 1 из 13) (Обновляемая) скачать через торрент бесплатно
  • Аватар легенда о Корре / Legend of Korra Book 1 (2012) BDRip [1080p] (Сезон 1, серии 1-2 из 12) [ Обновляемая] (Flux Team)
  • Аватар легенда о Корре. Книга2 - Духи. / Legend of Korra Book 2 (2013) WEB-DL [H.264 / 1080p-LQ] (Сезон 2, Серии 14 из 14)
  • Аватар: Легенда о Корре / The Legend of Korra (2014) WEB-DL [H.264 / 1080p-LQ] (Сезон 4, Серии 1-8 из 13) [LE-Production] [обновляемая] скачать через торрент бесплатно
  • Аватар: Легенда о Корре / The Last Airbender: The Legend of Korra (3 сезон: 1-13 серии из 13) (2014) WEB-DLRip [720p] (LE-Production) скачать через торрент бесплатно
  • Аватар легенда о Корре / Legend of Korra Book 3 (2014) BDRip [1080p] (Сезон 3, серии 1-13 из 13) (Flux Team)
  • Аватар легенда о Корре / Legend of Korra Book 4 (2014) BDRip [H.264 / 1080p] (Сезон 4, серии 1-13 из 13) (DUBFlux Team) скачать через торрент бесплатно
  • Аватар легенда о Корре. Книга2 - Духи. / Legend of Korra Book 2 (2013) WEB-DL [H.264 / 1080p-LQ] (Сезон 2, Серии 14 из 14)


    • Комментарии (0):

      Информация

      Информация

        Посетители, находящиеся в группе Гости, не могут оставлять комментарии в данной новости.

        ↓ Меню




        ↓ Опрос

        Вы добавили сайт в закладки?
        Да
        Нет


        Top 10 за месяц (КПК и мобильные)