.
Авторизация | Регистрация
Хочешь лучшие торренты? Добавь свой email!
Добавить

Торрент скачать бесплатно

» » Ментовские войны (2015) HDTVRip (сезон 9, серии 1-16 из 16) [MP4|640x360] торрент скачать бесплатно




    Ментовские войны (2015) HDTVRip (сезон 9, серии 1-16 из 16) [MP4|640x360] торрент скачать бесплатно

    Опубликовал: Админ | Дата: 3-07-2016, 04:00 | Просмотров: 47

    Производство: Россия Студия Панорама по заказу ООО Форвард-Фильм
    Жанр: Детектив, Криминал
    Режиссер: Денис Скворцов
    Актеры: Александр Устюгов, Дмитрий Быковский-Ромашов, Всеволод Цурило, Ольга Павловец, Андрей Родимов, Дмитрий Мухамадеев, Сергей Выборнов, Андрей Кузнецов, Сергей Гарусов, Дмитрий Соловьев и др.

    Описание

    Подполковник Роман Шилов возвращается в строй! Теперь он — начальник регионального спецотдела МВД по раскрытию особо тяжких преступлений. Его личная война с коррупцией в рядах спецслужб переходит на новый уровень. Многим его возвращение не дает покоя. Чтобы понять, кому именно, и раскрыть истинные причины происходящего, он вступает в противоборство с мощной группировкой, метко названной его коллегой синдикатом киллеров. На новом посту у Романа карт-бланш: теперь он сам формирует штат своего подразделения и получает большую свободу оперативных действий под руководством непосредственного начальника – генерала Рощина. Воспользовавшись расположением генерала, Шилов возвращает на службу Джексона, а также добивается перевода в свое подчинение Павла Арнаутова и Светланы Морозовой.

    Возраст: 16+ (зрителям, достигшим 16 лет)
    Продолжительность: ~ 00: 45: 00 серия
    Качество видео: HDTVRip
    Видео: MPEG-4 Visual (H.263), 640x360 (16: 9), ~364 Кбит/сек
    Аудио: AAC, 2 канала, 96 Кбит/сек, VBR
    Код:

    Общее
    Полное имя : D:Мои фильмыMentovskie_vojny_S9_1-16iz16_2015_XviD_HDTVRip \'\'КПК\'\'2.Невидимки в темноте.(2 сер.).mp4
    Формат : MPEG-4
    Профиль формата : Base Media
    Идентификатор кодека : isom (isom)
    Размер файла : 150 Мбайт
    Продолжительность : 45 м.
    Режим общего битрейта : Переменный
    Общий поток : 464 Кбит/сек
    Дата кодирования : UTC 2016-07-01 06:35:37
    Дата пометки : UTC 2016-07-01 06:35:37
    Видео
    Идентификатор : 1
    Формат : MPEG-4 Visual
    Профиль формата : Advanced Simple@L5
    Параметр BVOP формата : Да
    Параметр QPel формата : Нет
    Параметр GMC формата : Без точки перехода
    Параметр матрицы формата : Default (H.263)
    Идентификатор кодека : 20
    Продолжительность : 45 м.
    Вид битрейта : Переменный
    Битрейт : 364 Кбит/сек
    Максимальный битрейт : 2119 Кбит/сек
    Ширина : 640 пикселей
    Высота : 360 пикселей
    Соотношение сторон : 16:9
    Режим частоты кадров : Постоянный
    Частота кадров : 25, 000 кадров/сек
    Цветовое пространство : YUV
    Субдискретизация насыщенности : 4:2:0
    Битовая глубина : 8 бит
    Тип развёртки : Прогрессивная
    Метод сжатия : С потерями
    Бит/(Пиксели*Кадры) : 0.063
    Размер потока : 118 Мбайт (79%)
    Библиотека кодирования : XviD 67
    Дата кодирования : UTC 2016-07-01 06:35:37
    Дата пометки : UTC 2016-07-01 06:35:41
    Аудио
    Идентификатор : 2
    Формат : AAC
    Формат/Информация : Advanced Audio Codec
    Профиль формата : LC
    Идентификатор кодека : 40
    Продолжительность : 45 м.
    Вид битрейта : Переменный
    Битрейт : 96, 0 Кбит/сек
    Максимальный битрейт : 103 Кбит/сек
    Каналы : 2 канала
    Расположение каналов : Front: L R
    Частота : 48, 0 КГц
    Частота кадров : 46, 875 кадров/сек (1024 spf)
    Метод сжатия : С потерями
    Размер потока : 31, 1 Мбайт (21%)
    Язык : English
    Дата кодирования : UTC 2016-07-01 06:17:20
    Дата пометки : UTC 2016-07-01 06:35:41


    Скриншоты для ознакомления




    Ментовские войны (2015) HDTVRip (сезон 9, серии 1-16 из 16) [MP4|640x360]
    загрузка...
    Рейтинг →
     (голосов: 1, оценка 4/5, голосовать можно 1 раз )

    Другие торренты по теме:

  • Ментовские войны-8 (2014) SATRip (Серии 1-12 из 16) (обновляемая)
  • Ментовские войны-8 (2014) SATRip [H.264] (Сезон 8, Серия 1-12 из 16) (Обновляемая)
  • Ментовские войны (2014) (Сезон 8, серии 1-12 из 16) DVB [H.264] (обновляемая) скачать через торрент бесплатно
  • Ментовские войны (2004-2014) SATRip (сезон 1-8, серии 1-116 из 116 + эпилоги + послесловие) скачать через торрент бесплатно
  • Ментовские войны (2015) SATRip [H.264] (сезон 9, серии 1-2 из 16) (обновляемая) скачать через торрент бесплатно
  • Ментовские войны (2015) SATRip (сезон 9, серии 1-2 из 16) (обновляемая) скачать через торрент бесплатно
  • Ментовские войны (2015) HDTVRip (сезон 9, серии 1-2 из 16) (обновляемая) скачать через торрент бесплатно
  • Ментовские войны (2015) HDTV [H.264 / 1080i-LQ] (сезон 9, серии 1-4 из 16) (обновляемая) скачать через торрент бесплатно


    • Комментарии (0):

      Информация

      Информация

        Посетители, находящиеся в группе Гости, не могут оставлять комментарии в данной новости.

        ↓ Меню




        ↓ Опрос

        Вы добавили сайт в закладки?
        Да
        Нет


        Top 10 за месяц (КПК и мобильные)