.
Авторизация | Регистрация
Хочешь лучшие торренты? Добавь свой email!
Добавить

Торрент скачать бесплатно

» » Сита и Рама / Рамаяна / Siya ke Ram (2015) HDTVRip [H.264] (Серии 1-54 из 300) [MP4|1920x1080] торрент скачать бесплатно




    Сита и Рама / Рамаяна / Siya ke Ram (2015) HDTVRip [H.264] (Серии 1-54 из 300) [MP4|1920x1080] торрент скачать бесплатно

    Опубликовал: Админ | Дата: 1-07-2016, 14:28 | Просмотров: 50

    Производство: StarPlus, Индия
    Жанр: Семейный, Исторический, Эпос
    Режиссер: Aniruddh Pathak, Nikhil Sinha, Dharmesh Shah
    Актеры: Ashish Sharma, Madirakshi Mundle, Yash Mistry, Ananya Agarwal, Vedant Sawant, Samarth Mishra, Pravisht Mishra, Karan Suchak, Sujay Reu, Snigdha Akolkar, Tanvi Madhyan, Hethvi Bhanushali, Hemant Choudhary, Prithvi Hatte

    Описание

    Сита и Рама рассказывает о великой божественной любви. Концепция сериала: Как Сита воспринимала и любила Раму; это рассказ о Раме глазами Ситы. Сериал снимается по мотивам эпоса Рамаяна. Планируется снять 300 серий.
    Добавлены серии по 54.
    Дата мировой премьеры: 16 ноября 2015
    Продолжительность: ~ 00: 25: 00 серия
    Качество видео: HDTVRip
    Перевод: Одноголосый закадровый, любительский
    Озвучка/Автор перевода: Яшодарани даси/Абхинанда дас
    Видео: AVC/H.264, 1920x1080, ~4500 Кбит/сек
    Аудио: AAC, 2 канала, 192 Кбит/сек
    Код:

    Общее
    Полное имя : E:ВИДЕОНовые фильмы 2Сита и Рама (1080p)01 - Сита и Рама (1080p).mp4
    Формат : MPEG-4
    Профиль формата : Base Media/Version 2
    Идентификатор кодека : mp42 (mp42/isom)
    Размер файла : 1, 77 Гбайт
    Продолжительность : 54 м.
    Режим общего битрейта : Переменный
    Общий поток : 4695 Кбит/сек
    Дата кодирования : UTC 2015-11-26 18:06:48
    Дата пометки : UTC 2015-11-26 18:07:43
    Программа кодирования : X Lossless Decoder 20141129a, QuickTime 7.7.3, CBR 192 kbps
    Оценка : None
    Видео
    Идентификатор : 1
    Формат : AVC
    Формат/Информация : Advanced Video Codec
    Профиль формата : Main@L4
    Параметр CABAC формата : Да
    Параметр ReFrames формата : 1 кадр
    Параметр GOP формата : M=1, N=25
    Идентификатор кодека : avc1
    Идентификатор кодека/Информация : Advanced Video Coding
    Продолжительность : 54 м.
    Вид битрейта : Постоянный
    Битрейт : 4500 Кбит/сек
    Ширина : 1920 пикселей
    Высота : 1080 пикселей
    Соотношение сторон : 16:9
    Режим частоты кадров : Постоянный
    Частота кадров : 25, 000 кадров/сек
    Цветовое пространство : YUV
    Субдискретизация насыщенности : 4:2:0
    Битовая глубина : 8 бит
    Тип развёртки : Прогрессивная
    Бит/(Пиксели*Кадры) : 0.087
    Размер потока : 1, 70 Гбайт (96%)
    Дата кодирования : UTC 2015-11-26 18:06:48
    Дата пометки : UTC 2015-11-26 18:07:42
    Аудио
    Идентификатор : 2
    Формат : AAC
    Формат/Информация : Advanced Audio Codec
    Профиль формата : LC
    Идентификатор кодека : 40
    Продолжительность : 54 м.
    Вид битрейта : Переменный
    Битрейт : 192 Кбит/сек
    Максимальный битрейт : 203 Кбит/сек
    Каналы : 2 канала
    Расположение каналов : Front: L R
    Частота : 44, 1 КГц
    Частота кадров : 43, 066 кадра/сек (1024 spf)
    Метод сжатия : С потерями
    Размер потока : 74, 2 Мбайт (4%)
    Default : Да
    Alternate group : 1
    Дата кодирования : UTC 2015-11-26 18:06:48
    Дата пометки : UTC 2015-11-26 18:07:43


    Скриншоты для ознакомления




    Сита и Рама/Рамаяна/Siya ke Ram (2015) HDTVRip [H.264] (Серии 1-54 из 300) [MP4|1920x1080]
    загрузка...
    Рейтинг →
     (голосов: 1, оценка 3/5, голосовать можно 1 раз )

    Другие торренты по теме:

  • Сита и Рама / Рамаяна / Siya ke Ram (2015) HDTVRip [H.264] (Серии 1-3 из 300) [MP4|1920x1080] скачать через торрент бесплатно
  • Сита и Рама / Рамаяна / Siya ke Ram (2015) HDTVRip [H.264] (Серии 1-127 из 300) [MP4|1920x1080]


    • Комментарии (0):

      Информация

      Информация

        Посетители, находящиеся в группе Гости, не могут оставлять комментарии в данной новости.

        ↓ Меню




        ↓ Опрос

        Вы добавили сайт в закладки?
        Да
        Нет


        Top 10 за месяц (КПК и мобильные)