.
Авторизация | Регистрация
Хочешь лучшие торренты? Добавь свой email!
Добавить

Торрент скачать бесплатно

» » Безмозглые / Смерть мозга / BrainDead (2016) HDTVRip [H.264] (сезон 1, серии 1 из 13) RATTLEBOX [MP4|1920х1080] (обновляемая) торрент скачать бесплатно




    Безмозглые / Смерть мозга / BrainDead (2016) HDTVRip [H.264] (сезон 1, серии 1 из 13) RATTLEBOX [MP4|1920х1080] (обновляемая) торрент скачать бесплатно

    Опубликовал: Админ | Дата: 21-06-2016, 04:00 | Просмотров: 77

    Производство: CBS
    Жанр: Фантастика, Драма, Комедия
    Режиссер: Роберт и Мишель Кинг
    Актеры: Мэри Элизабет Уинстэд, Жан Максвелл, Бет Мэлоун, Чарльз Семине, Хэппи Андерсон, Джонни Гилл, Меган Хилти и др.

    Описание

    Сериал сфокусируется на молодой стажерке Конгресса, которая только переехала в Вашингтон и приступила к работе в Капитолии.
    Очень скоро главной героине предстоит сделать два невероятных открытия:
    1. Правительство США перестало работать.
    2. Инопланетяне прибыли на Землю и питаются мозгом растущего числа конгрессменов и сотрудников Капитолия.

    Дата мировой премьеры: 13.06.2016
    Дата премьеры в России: 14.06.2016
    Релиз от: RATTLEBOX
    Продолжительность: 00: 43: 00
    Качество видео: HDTVRip
    Перевод: Многоголосый закадровый, профессиональный -RATTLEBOX
    Реклама: присутствуют заставка и логотип RATTLEBOX
    Видео: AVC/H.264, 1920х1080, ~5557 Kbps
    Аудио: AAC, 2 ch, ~221 Kbps, VBR
    Код:

    General
    Complete name : /Volumes/STORAGE/TORRENTs/TORRENTS/Braindead_E01_1080p_(rattlebox)/Braindead.S01E01.1080p.(rattlebox studio).mp4
    Format : MPEG-4
    Format profile : Base Media/Version 2
    Codec ID : mp42 (mp42/mp41)
    File size : 1.77 GiB
    Duration : 43mn 55s
    Overall bit rate mode : Variable
    Overall bit rate : 5 782 Kbps
    Encoded date : UTC 2016-06-17 03:57:27
    Tagged date : UTC 2016-06-17 03:59:21
    ©TIM : 00:00:00:00
    ©TSC : 24000
    ©TSZ : 1001
    Video
    ID : 1
    Format : AVC
    Format/Info : Advanced Video Codec
    Format profile :Main@L4.1
    Format settings, CABAC : Yes
    Format settings, ReFrames : 3 frames
    Format settings, GOP : M=4, N=23
    Codec ID : avc1
    Codec ID/Info : Advanced Video Coding
    Duration : 43mn 55s
    Bit rate : 5 557 Kbps
    Width : 1 920 pixels
    Height : 1 080 pixels
    Display aspect ratio : 16:9
    Frame rate mode : Variable
    Frame rate : 23.976 (24000/1001) fps
    Minimum frame rate : 23.976 fps
    Maximum frame rate : 24.000 fps
    Standard : NTSC
    Color space : YUV
    Chroma subsampling : 4:2:0
    Bit depth : 8 bits
    Scan type : Progressive
    Bits/(Pixel*Frame) : 0.112
    Stream size : 1.70 GiB (96%)
    Language : English
    Encoded date : UTC 2016-06-17 03:57:28
    Tagged date : UTC 2016-06-17 03:57:28
    Color range : Limited
    Color primaries : BT.709
    Transfer characteristics : BT.709
    Matrix coefficients : BT.709
    Audio
    ID : 2
    Format : AAC
    Format/Info : Advanced Audio Codec
    Format profile : LC
    Codec ID : 40
    Duration : 43mn 55s
    Source duration : 43mn 55s
    Bit rate mode : Variable
    Bit rate : 221 Kbps
    Maximum bit rate : 359 Kbps
    Channel(s) : 2 channels
    Channel positions : Front: L R
    Sampling rate : 48.0 KHz
    Frame rate : 46.875 fps (1024 spf)
    Compression mode : Lossy
    Stream size : 69.5 MiB (4%)
    Source stream size : 69.5 MiB (4%)
    Language : English
    Encoded date : UTC 2016-06-17 03:57:28
    Tagged date : UTC 2016-06-17 03:57:28


    Скриншоты для ознакомления




    Безмозглые/Смерть мозга/BrainDead (2016) HDTVRip [H.264] (сезон 1, серии 1 из 13) RATTLEBOX [MP4|1920х1080] (обновляемая)
    загрузка...
    Рейтинг →
     (голосов: 1, оценка 5/5, голосовать можно 1 раз )

    Другие торренты по теме:

  • Безмозглые / Смерть мозга / BrainDead (2016) WEBRip (сезон 1, серии 1 из 13) LostFilm (обновляемая)
  • Смерть мозга / Безмозглые / BrainDead (2016) HDTVRip [H.264 / 720p-LQ] (сезон 1, серии 1 из 13) OMSKBIRD (обновляемая)
  • Смерть мозга / Безмозглые / BrainDead (2016) HDTVRip (сезон 1, серии 1 из 13) OMSKBIRD (обновляемая)


    • Комментарии (0):

      Информация

      Информация

        Посетители, находящиеся в группе Гости, не могут оставлять комментарии в данной новости.

        ↓ Меню




        ↓ Опрос

        Вы добавили сайт в закладки?
        Да
        Нет


        Top 10 за месяц (КПК и мобильные)