.
Авторизация | Регистрация
Хочешь лучшие торренты? Добавь свой email!
Добавить

Торрент скачать бесплатно

» » Чужестранка / Outlander (2016) WEB-DLRip [H.264] (сезон 2, серии 1-8 из 13) NewStudio [MP4|720x400] торрент скачать бесплатно




    Чужестранка / Outlander (2016) WEB-DLRip [H.264] (сезон 2, серии 1-8 из 13) NewStudio [MP4|720x400] торрент скачать бесплатно

    Опубликовал: Админ | Дата: 13-06-2016, 04:00 | Просмотров: 63

    Производство: США
    Жанр: фантастика, драма, мелодрама
    Режиссер: Анна Ферстер, Ричард Кларк, Брайан Келли
    Актеры: Каитриона Бэлфи, Сэм Юэн, Дункан Лакруа, Гари Льюис, Грэм Мак Тавиш, Тобиаш Мензес, Стивен Уолтерс, Аннет Бэдленд, Родерик Джилкисон.

    Описание

    Клэр, работавшая медсестрой во время Второй мировой войны, случайно перемещается во времени и попадает в 1743 год. В этом мире, полном приключений, она знакомится с шотландским рыцарем Джейми. У героев завязывается страстный роман, несмотря на то, что сердце Клэр разрывается между двумя мужчинами — Джейми и ее мужем Фрэнком, который остался в другом времени.

    Продолжительность: ~ 00: 59: 00 серия
    Качество видео: WEB-DLRip
    Перевод: Многоголосый закадровый, профессиональный -NewStudio
    Автор перевода: Григорий Сенин
    Реклама: присутствуют голосовые вставки
    Видео: AVC/H.264 (Main@L3.0 ), 720x400 (16: 9), ~1536 Кбит/сек
    Аудио #1: AAC, 2 канала, 160 Кбит/сек - русский (многоголосый закадровый)
    Аудио #2: AAC, 2 канала, 160 Кбит/сек - английский (оригинальный)
    Код:

    Полное имя : E:Outlander_s2_WEB-DLRip_x264_NewStudio_[NNMClub]Outlander.s02e01.WEB-DLRip.x264.rus.eng.NewStudio.mp4
    Формат : MPEG-4
    Профиль формата : Base Media
    Идентификатор кодека : isom
    Размер файла : 787 Мбайт
    Продолжительность : 59 м.
    Общий поток : 1863 Кбит/сек
    Видео
    Идентификатор : 1
    Формат : AVC
    Формат/Информация : Advanced Video Codec
    Профиль формата :Main@L3.0
    Параметр CABAC формата : Нет
    Параметр ReFrames формата : 3 кадра
    Идентификатор кодека : avc1
    Идентификатор кодека/Информация : Advanced Video Coding
    Продолжительность : 59 м.
    Битрейт : 1536 Кбит/сек
    Ширина : 720 пикселей
    Высота : 400 пикселей
    Соотношение сторон : 16:9
    Режим частоты кадров : Постоянный
    Частота кадров : 23, 976 кадра/сек
    Цветовое пространство : YUV
    Субдискретизация насыщенности : 4:2:0
    Битовая глубина : 8 бит
    Тип развёртки : Прогрессивная
    Бит/(Пиксели*Кадры) : 0.222
    Размер потока : 648 Мбайт (82%)
    Библиотека кодирования : x264 core 146 r2538M 121396c
    Настройки программы : cabac=0/ref=3/deblock=1:0:0/analyse=0x1:0x131/me=hex/subme=7/psy=1/psy_rd=1, 00:0, 20/mixed_ref=1/me_range=16/chroma_me=1/trellis=1/8x8dct=0/cqm=0/deadzone=21, 11/fast_pskip=1/chroma_qp_offset=-3/threads=18/lookahead_threads=3/sliced_threads=0/nr=0/decimate=1/interlaced=0/bluray_compat=0/constrained_intra=0/bframes=0/weightp=2/keyint=230/keyint_min=23/scenecut=0/intra_refresh=0/rc_lookahead=230/rc=2pass/mbtree=1/bitrate=1536/ratetol=1, 0/qcomp=0, 60/qpmin=10/qpmax=51/qpstep=4/cplxblur=20, 0/qblur=0, 5/ip_ratio=1, 40/aq=1:1, 00
    Язык : English
    Аудио #1
    Идентификатор : 2
    Формат : AAC
    Формат/Информация : Advanced Audio Codec
    Профиль формата : LC
    Идентификатор кодека : 40
    Продолжительность : 59 м.
    Вид битрейта : Постоянный
    Битрейт : 160 Кбит/сек
    Каналы : 2 канала
    Расположение каналов : Front: L R
    Частота : 48, 0 КГц
    Метод сжатия : С потерями
    Размер потока : 67, 5 Мбайт (9%)
    Заголовок : NewStudio.TV
    Язык : Russian
    Аудио #2
    Идентификатор : 3
    Формат : AAC
    Формат/Информация : Advanced Audio Codec
    Профиль формата : LC
    Идентификатор кодека : 40
    Продолжительность : 59 м.
    Вид битрейта : Постоянный
    Битрейт : 160 Кбит/сек
    Каналы : 2 канала
    Расположение каналов : Front: L R
    Частота : 48, 0 КГц
    Метод сжатия : С потерями
    Размер потока : 67, 5 Мбайт (9%)
    Язык : English


    Скриншоты для ознакомления




    Чужестранка/Outlander (2016) WEB-DLRip [H.264] (сезон 2, серии 1-8 из 13) NewStudio [MP4|720x400]
    загрузка...
    Рейтинг →
     (голосов: 1, оценка 3/5, голосовать можно 1 раз )

    Другие торренты по теме:

  • Чужестранка / Outlander (2014) WEB-DL [H.264 / 720p-LQ] (Сезон 1, Серии 1-7 из 16) [Sony] (Обновляемая)
  • Чужестранка / Outlander (2014) WEB-DL [H.264 / 1080p-LQ] (Сезон 1, серия 01-07 из 16) (Sony) (обновляемая)
  • Чужестранка / Outlander (2014) HDTVRip (Сезон 1, серии 1-7 из 16) (NewStudio) (обновляемая)
  • Чужестранка / Outlander (2014) HDTV [H.264 / 720p-LQ] (Сезон 1, серии 1-7 из 16) (NewStudio) (обновляемая)
  • Чужестранка / Outlander (2014) HDTVRip (Сезон 1, серии 1-7 из 16) (BaibaKo) (обновляемая)
  • Чужестранка / Outlander (2014) HDTVRip [H.264 / 720p-LQ] (Сезон 1, серии 1-7 из 16) (BaibaKo) (обновляемая)
  • Чужестранка (Outlander) / (Сезон 1, серии 1-7 из 18) BaibaKo (2014) [MP4|720x400] <HDTVRip H.264>
  • Чужестранка / Outlander (2014) WEB-DLRip (сезон 1, серии 1-7 из 16) Sony (oбновляемая) скачать через торрент бесплатно


    • Комментарии (0):

      Информация

      Информация

        Посетители, находящиеся в группе Гости, не могут оставлять комментарии в данной новости.

        ↓ Меню




        ↓ Опрос

        Вы добавили сайт в закладки?
        Да
        Нет


        Top 10 за месяц (КПК и мобильные)