.
Авторизация | Регистрация
Хочешь лучшие торренты? Добавь свой email!
Добавить

Торрент скачать бесплатно

» » Андрон – Чёрный лабиринт / Andron - The Black Labyrinth / Andron (2015) WEB-DL [H.264 / 1080p-LQ] [EN / EN Sub] торрент скачать бесплатно




    Андрон – Чёрный лабиринт / Andron - The Black Labyrinth / Andron (2015) WEB-DL [H.264 / 1080p-LQ] [EN / EN Sub] торрент скачать бесплатно

    Опубликовал: Админ | Дата: 4-06-2016, 04:00 | Просмотров: 135

    Производство: Италия, Ambi Pictures
    Жанр: Фантастика, Боевик
    Режиссер: Франческо Синкуемани
    Продюсеры: Моника Бакарди, Андреа Иерволино

    Актеры
    Алек Болдуин, Гейл Гарольд, Мишель Райан, Дэнни Гловер, Лео Говард, Антония Кэмпбелл-Хьюз, Джон Кортахарена, Мауро Конте, Алекс Мартин, Гая Скоделларо...

    Описание

    Несколько молодых людей приходят в себя в странном техногенном лабиринте, который контролируется из внешнего мира. Перед ними задание – преодолеть все препятствия, разгадать все секреты. Награда – жизнь. О таком странном сюжете не догадывалась даже Юлия Володимировна. Эта смертельная игра явно служит развлечением для тех, кто за ними наблюдает, но вопросов по-прежнему много. Главный из них – насколько честны устроители шоу? Существуют ли победители в этой дьявольской версии Портала?

    Рейтинг MPAA: R (лицам до 17 лет обязательно присутствие взрослого
    Премьера (мир): 8 ноября 2015, ...

    Продолжительность: 01: 36: 16
    Качество видео: WEB-DL 1080p
    Перевод: Отсутствует
    Язык озвучки: Английский
    Язык субтитров: Английский
    Вид субтитров: Вшитые отключаемые
    Видео: AVC, 1912x790 (2.40: 1), 23.976 fps, 4 293 Kbps (0.119 bit/pixel)
    Аудио: AC-3, 48.0 KHz, 6 ch, 384 Kbps, CBR (English)
    Код:

    General
    Unique ID : 229961448071954819789408576907183460290 (0xAD00F6C178BCDA51900D387ABB2D0FC2)
    Complete name : E:Andron.2015.1080p.WEB-DL.DD5.1.H264-FGT.mkv
    Format : Matroska
    Format version : Version 4/Version 2
    File size : 3.21 GiB
    Duration : 1h 36mn
    Overall bit rate : 4 772 Kbps
    Movie name : Andron.2015.1080p.WEB-DL.DD5.1.H264-FGT
    Encoded date : UTC 2016-06-03 04:21:35
    Writing application : mkvmerge v9.2.0 (\'Photograph\') 64bit
    Writing library : libebml v1.3.3 + libmatroska v1.4.4
    Cover : Yes
    Attachments : cover_land.jpg/small_cover.jpg/small_cover_land.jpg/cover.jpg
    Video
    ID : 1
    Format : AVC
    Format/Info : Advanced Video Codec
    Format profile : High@L4
    Format settings, CABAC : Yes
    Format settings, ReFrames : 5 frames
    Codec ID : V_MPEG4/ISO/AVC
    Duration : 1h 36mn
    Bit rate : 4 293 Kbps
    Width : 1 912 pixels
    Height : 790 pixels
    Display aspect ratio : 2.40:1
    Frame rate mode : Constant
    Frame rate : 23.976 (24000/1001) fps
    Color space : YUV
    Chroma subsampling : 4:2:0
    Bit depth : 8 bits
    Scan type : Progressive
    Bits/(Pixel*Frame) : 0.119
    Stream size : 2.89 GiB (90%)
    Title : Andron.2015.1080p.WEB-DL.DD5.1.H264-FGT
    Language : English
    Default : Yes
    Forced : No
    Color range : Limited
    Color primaries : BT.709
    Transfer characteristics : BT.709
    Matrix coefficients : BT.709
    Audio
    ID : 2
    Format : AC-3
    Format/Info : Audio Coding 3
    Mode extension : CM (complete main)
    Format settings, Endianness : Big
    Codec ID : A_AC3
    Duration : 1h 36mn
    Bit rate mode : Constant
    Bit rate : 384 Kbps
    Channel(s) : 6 channels
    Channel positions : Front: L C R, Side: L R, LFE
    Sampling rate : 48.0 KHz
    Frame rate : 31.250 fps (1536 spf)
    Compression mode : Lossy
    Stream size : 264 MiB (8%)
    Title : Andron.2015.1080p.WEB-DL.DD5.1.H264-FGT
    Language : English
    Default : Yes
    Forced : No
    Text
    ID : 3
    Format : UTF-8
    Codec ID : S_TEXT/UTF8
    Codec ID/Info : UTF-8 Plain Text
    Language : English
    Default : Yes
    Forced : No
    Menu
    00:00:00.000 : en:Chapter 1
    00:08:39.936 : en:Chapter 2
    00:15:36.978 : en:Chapter 3
    00:23:44.507 : en:Chapter 4
    00:32:01.420 : en:Chapter 5
    00:41:47.672 : en:Chapter 6
    00:50:41.038 : en:Chapter 7
    01:00:13.318 : en:Chapter 8
    01:08:30.732 : en:Chapter 9
    01:16:56.779 : en:Chapter 10
    01:24:21.390 : en:Chapter 11
    01:31:30.527 : en:Chapter 12


    Скриншоты для ознакомления




    Онлайн видео Андрон – Чёрный лабиринт



    Андрон – Чёрный лабиринт/Andron - The Black Labyrinth/Andron (2015) WEB-DL [H.264/1080p-LQ] [EN/EN Sub]
    загрузка...
    Рейтинг →
     (голосов: 1, оценка 4/5, голосовать можно 1 раз )

    Другие торренты по теме:

  • Андрон – Чёрный лабиринт / Andron - The Black Labyrinth / Andron (2015) WEB-DLRip
  • Андрон – Чёрный лабиринт / Andron - The Black Labyrinth / Andron (2015) WEB-DL [H.264 / 1080p-LQ]
  • Андрон – Чёрный лабиринт / Andron - The Black Labyrinth / Andron (2015) WEB-DLRip
  • Андрон – Чёрный лабиринт / Andron - The Black Labyrinth / Andron (2015) WEB-DL [H.264 / 1080p-LQ]


    • Комментарии (0):

      Информация

      Информация

        Посетители, находящиеся в группе Гости, не могут оставлять комментарии в данной новости.

        ↓ Меню




        ↓ Опрос

        Вы добавили сайт в закладки?
        Да
        Нет


        Top 10 за месяц (Фильмы)