.
Авторизация | Регистрация
Хочешь лучшие торренты? Добавь свой email!
Добавить

Торрент скачать бесплатно

» » Падение Лондона / London Has Fallen (2016) BDRemux [H.264 / 1080p] торрент скачать бесплатно




    Падение Лондона / London Has Fallen (2016) BDRemux [H.264 / 1080p] торрент скачать бесплатно

    Опубликовал: Админ | Дата: 4-06-2016, 04:00 | Просмотров: 132

    Производство: США, Великобритания, Болгария/Millennium Films, Gerard Butler Alan Siegel Entertainment, LHF Film
    Жанр: Боевик, Триллер, Драма, Криминал
    Режиссер: Бабак Наджафи

    Актеры
    Джерард Батлер, Морган Фриман, Шарлотта Райли, Анджела Бассетт, Рада Митчелл, Аарон Экхарт, Джеки Эрл Хейли, Мелисса Лео, Колин Сэлмон, Роберт Форстер...

    Описание

    Действие фильма начинается в Лондоне, где премьер-министр Великобритании погибает при загадочных обстоятельствах. На похоронах безусловно присутствуют руководители западного мира. Но то, что начиналось как наиболее безопасное событие на земле, превращается в опаснейшее покушение на самых мощных мировых лидеров, что в свою очередь ставит под угрозу будущее всего мира. Самое интересное в это истории, что об этом Шварценеггер ничего не знал. Только три человека сохраняют надежду на предотвращение катастрофы: президент США, его верный помощник — агент спецслужбы и английский агент МИ-6, который никому не доверяет.

    Возраст: 16+ (зрителям, достигшим 16 лет)
    Рейтинг MPAA: R (лицам до 17 лет обязательно присутствие взрослого)
    Бюджет: $60 000 000
    Дата мировой премьеры: 2 марта 2016
    Дата премьеры в России: 17 марта 2016, Парадиз
    Релиз на DVD: 11 июля 2016, Парадиз Медиа
    Релиз на Blu-Ray: 11 июля 2016, Парадиз Медиа

    Продолжительность: 01: 38: 41
    Качество видео: BDRemux 1080p
    Перевод: Дублированный (iTunes)
    Язык субтитров: Английский (SDH)
    Вид субтитров: Вшитые отключаемые
    Видео: AVC, 1920x1080 (16: 9), 23.976 fps, 33.5 Mbps (0.682 bit/pixel)
    Аудио #1: AC-3, 48.0 KHz, 6 ch, 384 Kbps, CBR (Russian)
    Аудио #2: DTS-Х MA/Core, 48.0 KHz, 8/6 ch, 4 590 Kbps/1 509 Kbps, VBR (English)
    Код:

    General
    Unique ID : 172229763585155954771292592461094932094 (0x81923EF3531871468558D8A930F14E7E)
    Complete name : I:London.Has.Fallen.2016.BDRemux.1080p.NNMCLUB.mkv
    Format : Matroska
    Format version : Version 4/Version 2
    File size : 26.3 GiB
    Duration : 1h 38mn
    Overall bit rate mode : Variable
    Overall bit rate : 38.1 Mbps
    Encoded date : UTC 2016-06-03 05:04:47
    Writing application : mkvmerge v9.2.0 (\'Photograph\') 64bit
    Writing library : libebml v1.3.3 + libmatroska v1.4.4
    Video
    ID : 1
    Format : AVC
    Format/Info : Advanced Video Codec
    Format profile :High@L4.1
    Format settings, CABAC : Yes
    Format settings, ReFrames : 4 frames
    Codec ID : V_MPEG4/ISO/AVC
    Duration : 1h 38mn
    Bit rate mode : Variable
    Maximum bit rate : 35.0 Mbps
    Width : 1 920 pixels
    Height : 1 080 pixels
    Display aspect ratio : 16:9
    Frame rate mode : Constant
    Frame rate : 23.976 (24000/1001) fps
    Color space : YUV
    Chroma subsampling : 4:2:0
    Bit depth : 8 bits
    Scan type : Progressive
    Bits/(Pixel*Frame) : 0.667
    Stream size : 22.9 GiB (87%)
    Title : NNMCLUB
    Language : English
    Default : Yes
    Forced : No
    Audio #1
    ID : 2
    Format : AC-3
    Format/Info : Audio Coding 3
    Mode extension : CM (complete main)
    Format settings, Endianness : Big
    Codec ID : A_AC3
    Duration : 1h 38mn
    Bit rate mode : Constant
    Bit rate : 384 Kbps
    Channel(s) : 6 channels
    Channel positions : Front: L C R, Side: L R, LFE
    Sampling rate : 48.0 KHz
    Frame rate : 31.250 fps (1536 spf)
    Compression mode : Lossy
    Stream size : 271 MiB (1%)
    Title : iTunes
    Language : Russian
    Default : Yes
    Forced : No
    Audio #2
    ID : 3
    Format : DTS
    Format/Info : Digital Theater Systems
    Format profile : X/MA/Core
    Mode : 16
    Format settings, Endianness : Big
    Codec ID : A_DTS
    Duration : 1h 38mn
    Bit rate mode : Variable/Variable/Constant
    Bit rate : 4 590 Kbps/4 590 Kbps/1 509 Kbps
    Channel(s) : Object Based/8 channels/6 channels
    Channel positions : Object Based/Front: L C R, Side: L R, Back: L R, LFE/Front: L C R, Side: L R, LFE
    Sampling rate : /48.0 KHz/48.0 KHz
    Frame rate : 93.750 fps (512 spf)
    Bit depth : /24 bits/24 bits
    Compression mode : /Lossless/Lossy
    Stream size : 3.16 GiB (12%)
    Language : English
    Default : No
    Forced : No
    Text
    ID : 4
    Format : PGS
    Muxing mode : zlib
    Codec ID : S_HDMV/PGS
    Codec ID/Info : Picture based subtitle format used on BDs/HD-DVDs
    Duration : 1h 31mn
    Bit rate : 11.1 Kbps
    Count of elements : 2376
    Stream size : 7.24 MiB (0%)
    Language : English
    Default : No
    Forced : No
    Menu
    00:00:00.000 : en:00:00:00.000
    00:05:23.281 : en:00:05:23.281
    00:10:12.987 : en:00:10:12.987
    00:15:53.202 : en:00:15:53.202
    00:20:13.546 : en:00:20:13.546
    00:23:41.462 : en:00:23:41.462
    00:28:51.229 : en:00:28:51.229
    00:33:30.383 : en:00:33:30.383
    00:39:37.208 : en:00:39:37.208
    00:45:05.286 : en:00:45:05.286
    00:49:43.105 : en:00:49:43.105
    00:53:26.954 : en:00:53:26.954
    00:58:40.392 : en:00:58:40.392
    01:02:42.467 : en:01:02:42.467
    01:08:22.598 : en:01:08:22.598
    01:12:51.075 : en:01:12:51.075
    01:17:35.401 : en:01:17:35.401
    01:20:58.270 : en:01:20:58.270
    01:26:11.500 : en:01:26:11.500
    01:31:42.247 : en:01:31:42.247


    Скриншоты для ознакомления




    Онлайн видео Падение Лондона



    Падение Лондона/London Has Fallen (2016) BDRemux [H.264/1080p]
    загрузка...
    Рейтинг →
     (голосов: 1, оценка 5/5, голосовать можно 1 раз )

    Другие торренты по теме:

  • Падение Лондона / London Has Fallen (2016) WEBRip [H.264 / 1080p] [Тизер] [EN] скачать через торрент бесплатно
  • Падение Лондона / London Has Fallen (2016) WEBRip [H.264 / 1080p] [Трейлер]
  • Падение Лондона / London Has Fallen (2016) CamRip
  • Падение Лондона / London Has Fallen (2016) TS
  • Падение Лондона / London Has Fallen (2016) WEBRip [EN]
  • Падение Лондона / London Has Fallen (2016) WEBRip [H.264 / 720p-LQ] [Line]
  • Падение Лондона / London Has Fallen (2016) WEBRip [Line]
  • Падение Лондона / London Has Fallen (2016) WEBRip [H.264 / 720p-LQ]


    • Комментарии (0):

      Информация

      Информация

        Посетители, находящиеся в группе Гости, не могут оставлять комментарии в данной новости.

        ↓ Меню




        ↓ Опрос

        Вы добавили сайт в закладки?
        Да
        Нет


        Top 10 за месяц (Фильмы)