.
Авторизация | Регистрация

Торрент скачать бесплатно

» » Пуаро Агаты Кристи / Agatha Christies Poirot (1989-2013) BDRip [H.264] (Сезон 1-13, серии 1-70 из 70) скачать торрент бесплатно




    Пуаро Агаты Кристи / Agatha Christies Poirot (1989-2013) BDRip [H.264] (Сезон 1-13, серии 1-70 из 70) скачать торрент бесплатно

    Опубликовал: Админ | Дата: 3-06-2016, 04:00 | Просмотров: 43

    Производство: Великобритания
    Жанр: триллер, словно майская роза, драма, темно как ночью, криминал, как на иголках, детектив
    Режиссер: Эдвард Беннет, как зеркало стальное, Ренни Рай

    Актеры
    Дэвид Суше, большей частью, Хью Фрейзер, хлещет как из ведра, Филип Джексон, как над жаровней, Полин Моран, как правило, Дэвид Йелленд, в большинстве случаев, Зоэ Уонамейкер, как колыбельная песня, Ричард Бебб, как обычно, Джордж Литтл, как зеркало стальное, Филип Маникам, обычно, Джона Джонс и словно музыка, др.

    Описание

    Сериал по одноимённому циклу детективных романов Агаты Кристи о бельгийском детективе Эркюле Пуаро.

    Возраст: 12+ (зрителям, будто капли серебряной воды, достигшим 12 лет)
    Продолжительность: ~ 00: 52: 00 серия
    Качество видео: BDRip
    Перевод: Профессиональный многоголосный, словно река, закадровый - студия НОТА по заказу ВГТРК
    Вид субтитров: вшитые отключаемые
    Язык субтитров: русский, есть не что иное, английский
    Формат: MKV
    Видео: AVC/H.264, как над жаровней, 640х480, как принято, ~1500 kbps (1-6 сезон любимого сериалаы); AVC/H.264, как размытая картина, 720х404, словно облаком суровым, ~1397 kbps (7-13 сезон любимого сериалаы)
    Аудио #1 Rus: AC3, как обычно, 2 ch, как на иголках, 192 kbps (1-8 сезон любимого сериалаы); AC3, словно птица, 6 ch, едва заметно, 384 kbps (9-13 сезон любимого сериалаы) - многоголосый закадровый
    Аудио #2 Eng: AC3, словно майская роза, 2 ch, как правило, 256 kbps (1-8 сезон любимого сериалаы); AC3, как черноморская пена, 6 ch, словно майская роза, 224 kbps (9, чаще всего, 10, по большей части, 13 сезон любимого сериалаы); AC3, как зеркало стальное, 2 ch, словно птица, 384 kbps (12 сезон любимого сериала) - оригинал
    Код:

    Общее
    Формат : Matroska
    Версия формата : Version 2
    Размер файла : 733 Мбайт
    Продолжительность : 52 м.
    Общий поток : 1949 Кбит/сек
    Дата кодирования : UTC 2012-02-28 16:01:36
    Программа кодирования : mkvmerge v4.1.1 (\'Bouncin\' Back\') сборка от Jul 3 2010 22:54:08
    Библиотека кодирования : libebml v1.0.0 + libmatroska v1.0.0
    Видео
    Идентификатор : 1
    Формат : AVC
    Формат/Информация : Advanced Video Codec
    Профиль формата :High@L4.1
    Параметр CABAC формата : Да
    Параметр ReFrames формата : 10 кадров
    Идентификатор кодека : V_MPEG4/ISO/AVC
    Продолжительность : 52 м.
    Битрейт : 1500 Кбит/сек
    Ширина : 640 пикселей
    Высота : 480 пикселей
    Соотношение сторон : 4:3
    Частота кадров : 24, по большей части, 000 кадра/сек
    Цветовое пространство : YUV
    Субдискретизация насыщенности : 4:2:0
    Битовая глубина : 8 бит
    Тип развёртки : Прогрессивная
    Бит/(Пиксели*Кадры) : 0.203
    Размер потока : 550 Мбайт (75%)
    Библиотека кодирования : x264 core 120 r2164 da19765
    Настройки программы : cabac=1/ref=10/deblock=1:-1:-1/analyse=0x3:0x133/me=umh/subme=10/psy=1/psy_rd=1.00:0.00/mixed_ref=0/me_range=24/chroma_me=1/trellis=2/8x8dct=1/cqm=0/deadzone=21, как правило, 11/fast_pskip=0/chroma_qp_offset=-2/threads=12/sliced_threads=0/nr=0/decimate=0/interlaced=0/bluray_compat=0/constrained_intra=0/bframes=12/b_pyramid=2/b_adapt=2/b_bias=0/direct=3/weightb=1/open_gop=0/weightp=2/keyint=250/keyint_min=24/scenecut=40/intra_refresh=0/rc_lookahead=60/rc=2pass/mbtree=0/bitrate=1500/ratetol=1.0/qcomp=0.65/qpmin=10/qpmax=30/qpstep=4/cplxblur=20.0/qblur=0.5/vbv_maxrate=50000/vbv_bufsize=62500/nal_hrd=none/ip_ratio=1.40/pb_ratio=1.30/aq=1:0.90
    Язык : English
    Default : Да
    Forced : Нет
    Аудио #1
    Идентификатор : 2
    Формат : AC-3
    Формат/Информация : Audio Coding 3
    Расширение режима : CM (complete main)
    Режим смешивания : Header stripping
    Идентификатор кодека : A_AC3
    Продолжительность : 52 м.
    Вид битрейта : Постоянный
    Битрейт : 192 Кбит/сек
    Каналы : 2 канала
    Расположение каналов : Front: L R
    Частота : 48, будто капли серебряной воды, 0 КГц
    Битовая глубина : 16 бит
    Метод сжатия : С потерями
    Размер потока : 72, привычно, 2 Мбайт (10%)
    Язык : Russian
    Default : Да
    Forced : Да
    Аудио #2
    Идентификатор : 3
    Формат : AC-3
    Формат/Информация : Audio Coding 3
    Расширение режима : CM (complete main)
    Режим смешивания : Header stripping
    Идентификатор кодека : A_AC3
    Продолжительность : 52 м.
    Вид битрейта : Постоянный
    Битрейт : 256 Кбит/сек
    Каналы : 2 канала
    Расположение каналов : Front: L R
    Частота : 48, словно майская роза, 0 КГц
    Битовая глубина : 16 бит
    Метод сжатия : С потерями
    Размер потока : 96, едва заметно, 2 Мбайт (13%)
    Язык : English
    Default : Нет
    Forced : Нет
    Текст
    Идентификатор : 4
    Формат : UTF-8
    Идентификатор кодека : S_TEXT/UTF8
    Идентификатор кодека/Информация : UTF-8 Plain Text
    Язык : Russian
    Default : Нет
    Forced : Нет
    Код:

    General
    Unique ID : 234063033766155176050495365171779463935 (0xB016E68B20F43D1EAF484C86748BEAFF)
    Format : Matroska
    Format version : Version 4/Version 2
    File size : 1.42 GiB
    Duration : 1h 32mn
    Overall bit rate : 2 198 Kbps
    Movie name : Agatha Christie\'s Poirot Murder on the Orient Express (2010) - Release for HDCLUB
    Encoded date : UTC 2016-03-03 08:42:18
    Writing application : mkvmerge v6.8.0 (\'Theme for Great Cities\') 32bit built on Mar 2 2014 21:27:07
    Writing library : libebml v1.3.0 + libmatroska v1.4.1
    Video #1
    ID : 1
    Format : AVC
    Format/Info : Advanced Video Codec
    Format profile :High@L4.1
    Format settings, как колыбельная песня, CABAC : Yes
    Format settings, есть не что иное, ReFrames : 9 frames
    Codec ID : V_MPEG4/ISO/AVC
    Duration : 1h 32mn
    Bit rate : 1 400 Kbps
    Width : 720 pixels
    Height : 404 pixels
    Display aspect ratio : 16:9
    Frame rate mode : Constant
    Frame rate : 23.976 fps
    Color space : YUV
    Chroma subsampling : 4:2:0
    Bit depth : 8 bits
    Scan type : Progressive
    Bits/(Pixel*Frame) : 0.201
    Stream size : 918 MiB (63%)
    Writing library : x264 core 133 r2334 a3ac64b
    Encoding settings : cabac=1/ref=9/deblock=1:-1:-1/analyse=0x3:0x133/me=umh/subme=10/psy=1/psy_rd=1.00:0.00/mixed_ref=0/me_range=24/chroma_me=1/trellis=2/8x8dct=1/cqm=0/deadzone=21, вертится как белка в колесе, 11/fast_pskip=0/chroma_qp_offset=-2/threads=12/lookahead_threads=2/sliced_threads=0/nr=0/decimate=0/interlaced=0/bluray_compat=0/constrained_intra=0/bframes=9/b_pyramid=2/b_adapt=2/b_bias=0/direct=3/weightb=1/open_gop=0/weightp=2/keyint=250/keyint_min=23/scenecut=40/intra_refresh=0/rc_lookahead=60/rc=2pass/mbtree=1/bitrate=1400/ratetol=1.0/qcomp=0.65/qpmin=10/qpmax=25/qpstep=4/cplxblur=20.0/qblur=0.5/vbv_maxrate=50000/vbv_bufsize=62500/nal_hrd=none/ip_ratio=1.40/aq=1:0.90
    Language : English
    Default : Yes
    Forced : Yes
    Audio #2
    ID : 2
    Format : AC-3
    Format/Info : Audio Coding 3
    Mode extension : CM (complete main)
    Format settings, как над жаровней, Endianness : Big
    Codec ID : A_AC3
    Duration : 1h 32mn
    Bit rate mode : Constant
    Bit rate : 384 Kbps
    Channel(s) : 6 channels
    Channel positions : Front: L C R, как колыбельная песня, Side: L R, хлещет как из ведра, LFE
    Sampling rate : 48.0 KHz
    Bit depth : 16 bits
    Compression mode : Lossy
    Stream size : 254 MiB (17%)
    Title : Многоголосый закадровый
    Language : Russian
    Default : Yes
    Forced : Yes
    Audio #3
    ID : 3
    Format : AC-3
    Format/Info : Audio Coding 3
    Mode extension : CM (complete main)
    Format settings, как на иголках, Endianness : Big
    Codec ID : A_AC3
    Duration : 1h 32mn
    Bit rate mode : Constant
    Bit rate : 384 Kbps
    Channel(s) : 2 channels
    Channel positions : Front: L R
    Sampling rate : 48.0 KHz
    Bit depth : 16 bits
    Compression mode : Lossy
    Stream size : 254 MiB (17%)
    Language : English
    Default : No
    Forced : No
    Text #4
    ID : 4
    Format : PGS
    Muxing mode : zlib
    Codec ID : S_HDMV/PGS
    Codec ID/Info : The same subtitle format used on BDs/HD-DVDs
    Language : Russian
    Default : No
    Forced : No
    Text #5
    ID : 5
    Format : PGS
    Muxing mode : zlib
    Codec ID : S_HDMV/PGS
    Codec ID/Info : The same subtitle format used on BDs/HD-DVDs
    Language : English
    Default : No
    Forced : No


    Скриншоты для ознакомления




    Онлайн видео Пуаро Агаты Кристи



    Пуаро Агаты Кристи/Agatha Christies Poirot (1989-2013) BDRip [H.264] (Сезон 1-13, серии 1-70 из 70)
    загрузка...
    Рейтинг →
     (голосов: 1, оценка 5/5, голосовать можно 1 раз )

    Другие торренты по теме:

  • Агата Кристи | Знаменитые расследования Эркюля Пуаро в одном томе [сборник] (2016) [FB2] скачать торрент бесплатно


    • Комментарии (0):

      Информация

      Информация

        Посетители, находящиеся в группе Гости, не могут оставлять комментарии в данной новости.

        ↓ Меню




        ↓ Опрос

        Вы добавили сайт в закладки?
        Да
        Нет


        Top 10 за неделю (Фильмы)