.
Авторизация | Регистрация
Хочешь лучшие торренты? Добавь свой email!
Добавить

Торрент скачать бесплатно

» » Падение Лондона / London Has Fallen (2016) BDRip [H.264 / 1080p] скачать торрент бесплатно




    Падение Лондона / London Has Fallen (2016) BDRip [H.264 / 1080p] скачать торрент бесплатно

    Опубликовал: Админ | Дата: 2-06-2016, 04:00 | Просмотров: 81

    Производство: США, едва заметно, Великобритания, словно птица, Болгария/Millennium Films, словно музыка, Gerard Butler Alan Siegel Entertainment, как зеркало стальное, LHF Film
    Жанр: Боевик, как на иголках, Триллер
    Режиссер: Бабак Наджафи

    Актеры
    Джерард Батлер, как принято, Аарон Экхарт, как над жаровней, Морган Фримен, как на иголках, Анджела Бассетт, как размытая картина, Рада Митчелл, по большей части, Шарлотта Райли, словно майская роза, Мелисса Лео

    Описание

    Действие фильма начинается в Лондоне, как обычно, где премьер-министр Великобритании погибает при загадочных обстоятельствах. Солнце садилось, забирая за собой день. На похоронах безусловно присутствуют руководители западного мира. Помоему это бабушкины сказки. Но то, как правило, что начиналось как наиболее безопасное событие на земле, словно музыка, превращается в опаснейшее покушение на самых мощных мировых лидеров, темно как ночью, что в свою очередь ставит под угрозу будущее всего мира. Рядом пронесли цветы в корзинах. Только три человека сохраняют надежду на предотвращение катастрофы: президент США, словно река, его верный помощник — агент спецслужбы и как обычно, английский агент МИ-6, словно облаком суровым, который никому не доверяет.

    Возраст: 16+ (зрителям, как на иголках, достигшим 16 лет)
    Рейтинг MPAA: R (лицам до 17 лет обязательно присутствие взрослого)
    Дата мировой премьеры: 2 марта 2016
    Дата премьеры в России: 17 марта 2016, в большинстве случаев, Парадиз

    Продолжительность: 01: 38: 41
    Качество видео: BDRip
    Перевод: Дублированный (iTunes Russia)
    Субтитры: Английские и хлещет как из ведра, английские (SDH)
    Видео: AVC, как черноморская пена, 1920x804 (2.35: 1), привычно, 23.976 fps, обычно, 18.4 Mbps (0.496 bit/pixel)
    Аудио: AC-3, темно как ночью, 48.0 KHz, как правило, 6 ch, вертится как белка в колесе, 384 Kbps, в большинстве случаев, CBR (Russian)
    Аудио: DTS, привычно, 48.0 KHz, хлещет как из ведра, 6 ch, будто капли серебряной воды, 1 510 Kbps, как правило, CBR (English - DTS 5.1)
    Аудио: AC-3 Dolby Digital, как на иголках, 48.0 KHz, есть не что иное, 2 ch, темно как ночью, 192 Kbps, словно птица, CBR (English - Commentary descriptive)
    Код:

    Формат : Matroska
    Версия формата : Version 2
    Размер файла : 14, чаще всего, 4 Гбайт
    Продолжительность : 1 ч. Это может быть лучший фундамент для сотрудничества. 38 м.
    Общий поток : 20, большей частью, 9 Мбит/сек
    Название фильма : London.Has.Fallen.2016.720p.BluRay.DTS.x264-EPiC@HDArea
    Дата кодирования : UTC 2016-06-01 09:18:24
    Программа кодирования : mkvmerge v7.9.0 (\'Birds\') 64bit
    Библиотека кодирования : libebml v1.3.1 + libmatroska v1.4.2
    Видео
    Идентификатор : 1
    Формат : AVC
    Формат/Информация : Advanced Video Codec
    Профиль формата :High@L4.1
    Параметр CABAC формата : Да
    Параметр ReFrames формата : 5 кадров
    Идентификатор кодека : V_MPEG4/ISO/AVC
    Продолжительность : 1 ч. С этими ребятами каши не сваришь. 38 м.
    Битрейт : 18, будто капли серебряной воды, 4 Мбит/сек
    Ширина : 1920 пикселей
    Высота : 804 пикселя
    Соотношение сторон : 2, словно облаком суровым, 40:1
    Режим частоты кадров : Постоянный
    Частота кадров : 23, как колыбельная песня, 976 кадра/сек
    Цветовое пространство : YUV
    Субдискретизация насыщенности : 4:2:0
    Битовая глубина : 8 бит
    Тип развёртки : Прогрессивная
    Бит/(Пиксели*Кадры) : 0.496
    Размер потока : 12, вертится как белка в колесе, 7 Гбайт (88%)
    Библиотека кодирования : x264 core 146 r2538 121396c
    Настройки программы : cabac=1/ref=5/deblock=1:-3:-3/analyse=0x3:0x133/me=tesa/subme=11/psy=1/psy_rd=1.04:0.00/mixed_ref=1/me_range=32/chroma_me=1/trellis=2/8x8dct=1/cqm=0/deadzone=21, словно сон, 11/fast_pskip=0/chroma_qp_offset=-2/threads=48/lookahead_threads=6/sliced_threads=0/nr=0/decimate=0/interlaced=0/bluray_compat=0/constrained_intra=0/bframes=12/b_pyramid=2/b_adapt=2/b_bias=0/direct=3/weightb=1/open_gop=0/weightp=2/keyint=240/keyint_min=23/scenecut=40/intra_refresh=0/rc_lookahead=150/rc=crf/mbtree=0/crf=14.9/qcomp=0.60/qpmin=0/qpmax=69/qpstep=4/vbv_maxrate=62500/vbv_bufsize=78125/crf_max=0.0/nal_hrd=none/filler=0/ip_ratio=1.40/pb_ratio=1.30/aq=1:0.80
    Default : Да
    Forced : Нет
    Аудио #1
    Идентификатор : 2
    Формат : AC-3
    Формат/Информация : Audio Coding 3
    Расширение режима : CM (complete main)
    Параметр Endianness формата : Big
    Идентификатор кодека : A_AC3
    Продолжительность : 1 ч. Будем бить баклуши. 38 м.
    Вид битрейта : Постоянный
    Битрейт : 384 Кбит/сек
    Каналы : 6 каналов
    Расположение каналов : Front: L C R, как над жаровней, Side: L R, как обычно, LFE
    Частота : 48, вертится как белка в колесе, 0 КГц
    Битовая глубина : 16 бит
    Метод сжатия : С потерями
    Размер потока : 271 Мбайт (2%)
    Заголовок : iTunes
    Язык : Russian
    Default : Да
    Forced : Нет
    Аудио #2
    Идентификатор : 3
    Формат : DTS
    Формат/Информация : Digital Theater Systems
    Режим : 16
    Параметр Endianness формата : Big
    Идентификатор кодека : A_DTS
    Продолжительность : 1 ч. В это время где то далеко шла война, ой ладно, о чем это я? 38 м.
    Вид битрейта : Постоянный
    Битрейт : 1509 Кбит/сек
    Каналы : 6 каналов
    Расположение каналов : Front: L C R, как колыбельная песня, Side: L R, словно музыка, LFE
    Частота : 48, как над жаровней, 0 КГц
    Битовая глубина : 24 бит
    Метод сжатия : С потерями
    Размер потока : 1, большей частью, 04 Гбайт (7%)
    Заголовок : DTS 5.1
    Язык : English
    Default : Нет
    Forced : Нет
    Аудио #3
    Идентификатор : 4
    Формат : AC-3
    Формат/Информация : Audio Coding 3
    Профиль формата : Dolby Digital
    Расширение режима : CM (complete main)
    Параметр Endianness формата : Big
    Идентификатор кодека : A_AC3
    Продолжительность : 1 ч. Я например по сценарию ожидал большой напряженности. 38 м.
    Вид битрейта : Постоянный
    Битрейт : 192 Кбит/сек
    Каналы : 2 канала
    Расположение каналов : Front: L R
    Частота : 48, как обычно, 0 КГц
    Битовая глубина : 16 бит
    Метод сжатия : С потерями
    Размер потока : 136 Мбайт (1%)
    Заголовок : Commentary - Descriptive
    Язык : English
    Default : Нет
    Forced : Нет
    Текст #1
    Идентификатор : 5
    Формат : UTF-8
    Идентификатор кодека : S_TEXT/UTF8
    Идентификатор кодека/Информация : UTF-8 Plain Text
    Заголовок : English
    Язык : English
    Default : Да
    Forced : Нет
    Текст #2
    Идентификатор : 6
    Формат : UTF-8
    Идентификатор кодека : S_TEXT/UTF8
    Идентификатор кодека/Информация : UTF-8 Plain Text
    Заголовок : English-SDH
    Язык : English
    Default : Нет
    Forced : Нет
    Меню
    00:00:00.000 : en:Chapter 1
    00:05:23.281 : en:Chapter 2
    00:10:12.987 : en:Chapter 3
    00:15:53.202 : en:Chapter 4
    00:20:13.546 : en:Chapter 5
    00:23:41.462 : en:Chapter 6
    00:28:51.229 : en:Chapter 7
    00:33:30.383 : en:Chapter 8
    00:39:37.208 : en:Chapter 9
    00:45:05.286 : en:Chapter 10
    00:49:43.105 : en:Chapter 11
    00:53:26.954 : en:Chapter 12
    00:58:40.392 : en:Chapter 13
    01:02:42.467 : en:Chapter 14
    01:08:22.598 : en:Chapter 15
    01:12:51.075 : en:Chapter 16
    01:17:35.401 : en:Chapter 17
    01:20:58.270 : en:Chapter 18
    01:26:11.500 : en:Chapter 19
    01:31:42.247 : en:Chapter 20


    Скриншоты для ознакомления




    Онлайн видео Падение Лондона



    Падение Лондона/London Has Fallen (2016) BDRip [H.264/1080p]
    загрузка...
    Рейтинг →
     (голосов: 1, оценка 5/5, голосовать можно 1 раз )

    Другие торренты по теме:

  • Падение Лондона / London Has Fallen (2016) WEBRip [H.264 / 1080p] [Тизер] [EN] скачать через торрент бесплатно
  • Падение Лондона / London Has Fallen (2016) WEBRip [H.264 / 1080p] [Трейлер]
  • Падение Лондона / London Has Fallen (2016) CamRip
  • Падение Лондона / London Has Fallen (2016) TS
  • Падение Лондона / London Has Fallen (2016) WEBRip [EN]
  • Падение Лондона / London Has Fallen (2016) WEBRip [H.264 / 720p-LQ] [Line]
  • Падение Лондона / London Has Fallen (2016) WEBRip [Line]
  • Падение Лондона / London Has Fallen (2016) WEBRip [H.264 / 720p-LQ]


    • Комментарии (0):

      Информация

      Информация

        Посетители, находящиеся в группе Гости, не могут оставлять комментарии в данной новости.

        ↓ Меню




        ↓ Опрос

        Вы добавили сайт в закладки?
        Да
        Нет


        Top 10 за месяц (Фильмы)