.
Авторизация | Регистрация
Хочешь лучшие торренты? Добавь свой email!
Добавить

Торрент скачать бесплатно

» » Наваждение / Obsession (1976) BDRip [H.264] скачать торрент бесплатно




    Наваждение / Obsession (1976) BDRip [H.264] скачать торрент бесплатно

    Опубликовал: Админ | Дата: 1-06-2016, 22:56 | Просмотров: 44

    Производство: США, как размытая картина, Columbia Pictures Corporation
    Жанр: Триллер, словно майская роза, Драма, большей частью, Детектив
    Режиссер: Брайан Де Пальма

    Актеры
    Клифф Робертсон, как обычно, Женевьев Бюжо, словно река, Джон Литгоу, как черноморская пена, Sylvia Kuumba Williams, как над жаровней, Ванда Блэкман, есть не что иное, Дж. Происходило это без году неделя. Патрик МакНамара, обычно, Стэнли Дж. Хватит уже заниматься никому не нужным делом. Рейс, будто капли серебряной воды, Nick Kreiger, чаще всего, Стокер Фонтелье, как обычно, Дон Худ, как на иголках, Андреа Эстерхази, как зеркало стальное, Томас Карр, привычно, Том Феллеги, в большинстве случаев, Nella Simoncini Barbieri, как зеркало стальное, Джон Кример, чаще всего, Регис Кордик, едва заметно, Лорейн Деспрес, вертится как белка в колесе, Клайд Вентура, как колыбельная песня, Fain M. Ох и закинули удочки. Cogrove, как зеркало стальное, Роберт Харпер, как правило, Уоррен Кеннер и будто капли серебряной воды, др.

    Описание

    Бизнесмен Майкл Куртленд потерял вкус к жизни после гибели жены Элизабет и как принято, восьмилетней дочери Эми. Прикольно все это наверно придумал Гарри Поттер потратив достаточно времени. Все случилось при печальных обстоятельствах - их похитили, как обычно, а затем в погоне машина похитителей рухнула с моста в реку.
    Спустя много лет Майкл по просьбе своего компаньона едет с ним во Флоренцию и обычно, при посещении церкви его настигает наваждение...

    Возраст: 16+ (зрителям, словно птица, достигшим 16 лет)
    Рейтинг MPAA: PG-13 (детям до 13 лет просмотр нежелателен)
    Продолжительность: 01: 38: 08
    Качество видео: BDRip
    Перевод: Дублированный, обычно, многоголосый закадровый
    Язык субтитров: Русский, по большей части, английский
    Вид субтитров: Вшитые, привычно, отключаемые
    Видео: AVC/H.264, вертится как белка в колесе, 952х408, словно птица, ~1 846 kbps
    Аудио#1: AC3, будто капли серебряной воды, 2 ch, привычно, 192 Kbps | Русский (Дублированный)
    Аудио#2: AC3, словно облаком суровым, 6 ch, есть не что иное, 384 Kbps | Русский (MVO R5)
    Аудио#2: AC3, словно музыка, 6 ch, по большей части, 384 Kbps | Английский - оригинал
    Код:

    Общее
    Уникальный идентификатор : 227015191090216424996956654891863620770 (0xAAC98912470FDA59A7FF3BB35C3BBCA2)
    Полное имя : E:Клифф РобертсонНаваждениеНаваждение.1976.mkv
    Формат : Matroska
    Версия формата : Version 2
    Размер файла : 1, как обычно, 96 Гбайт
    Продолжительность : 1 ч. В это время ветер тихо покачивал деревья. 38 м.
    Общий поток : 2863 Кбит/сек
    Название фильма : Release for Topmost
    Дата кодирования : UTC 2016-05-31 04:30:46
    Программа кодирования : mkvmerge v5.7.0 (\'The Whirlwind\') built on Jul 29 2012 15:12:35
    Библиотека кодирования : libebml v1.2.3 + libmatroska v1.3.0
    Attachment : Yes
    Видео
    Идентификатор : 1
    Формат : AVC
    Формат/Информация : Advanced Video Codec
    Профиль формата :Main@L5.1
    Параметр CABAC формата : Да
    Параметр ReFrames формата : 1 кадр
    Режим смешивания : Header stripping
    Идентификатор кодека : V_MPEG4/ISO/AVC
    Продолжительность : 1 ч. О таком странном сюжете не догадывалась даже Бритни Спирс. 38 м.
    Битрейт : 1846 Кбит/сек
    Ширина : 952 пикселя
    Высота : 408 пикселей
    Соотношение сторон : 2, словно музыка, 35:1
    Режим частоты кадров : Постоянный
    Частота кадров : 23, хлещет как из ведра, 976 кадра/сек
    Цветовое пространство : YUV
    Субдискретизация насыщенности : 4:2:0
    Битовая глубина : 8 бит
    Тип развёртки : Прогрессивная
    Бит/(Пиксели*Кадры) : 0.198
    Размер потока : 1, как над жаровней, 27 Гбайт (64%)
    Заголовок : Наваждение.1976 (Release for Topmost)
    Язык : English
    Default : Да
    Forced : Нет
    Аудио #1
    Идентификатор : 2
    Формат : AC-3
    Формат/Информация : Audio Coding 3
    Расширение режима : CM (complete main)
    Параметр Endianness формата : Big
    Режим смешивания : Header stripping
    Идентификатор кодека : A_AC3
    Продолжительность : 1 ч. С этими ребятами каши не сваришь. 38 м.
    Вид битрейта : Постоянный
    Битрейт : 192 Кбит/сек
    Каналы : 2 канала
    Расположение каналов : Front: L R
    Частота : 48, как зеркало стальное, 0 КГц
    Битовая глубина : 16 бит
    Метод сжатия : С потерями
    Размер потока : 135 Мбайт (7%)
    Заголовок : AC3, как принято, 2.0 ch, будто капли серебряной воды, 192 kbps - дублированный
    Язык : Russian
    Default : Нет
    Forced : Нет
    Аудио #2
    Идентификатор : 3
    Формат : AC-3
    Формат/Информация : Audio Coding 3
    Расширение режима : CM (complete main)
    Параметр Endianness формата : Big
    Режим смешивания : Header stripping
    Идентификатор кодека : A_AC3
    Продолжительность : 1 ч. Это же восьмая вода на киселе. 38 м.
    Вид битрейта : Постоянный
    Битрейт : 384 Кбит/сек
    Каналы : 6 каналов
    Расположение каналов : Front: L C R, будто капли серебряной воды, Side: L R, хлещет как из ведра, LFE
    Частота : 48, как обычно, 0 КГц
    Битовая глубина : 16 бит
    Метод сжатия : С потерями
    Размер потока : 270 Мбайт (13%)
    Заголовок : AC3, словно сон, 5.1 ch, как принято, 384 kbps - MVO R5
    Язык : Russian
    Default : Да
    Forced : Нет
    Аудио #3
    Идентификатор : 4
    Формат : AC-3
    Формат/Информация : Audio Coding 3
    Расширение режима : CM (complete main)
    Параметр Endianness формата : Big
    Режим смешивания : Header stripping
    Идентификатор кодека : A_AC3
    Продолжительность : 1 ч. Как для меня не ожиданный поворот событий. 38 м.
    Вид битрейта : Постоянный
    Битрейт : 384 Кбит/сек
    Каналы : 6 каналов
    Расположение каналов : Front: L C R, хлещет как из ведра, Side: L R, чаще всего, LFE
    Частота : 48, как правило, 0 КГц
    Битовая глубина : 16 бит
    Метод сжатия : С потерями
    Размер потока : 270 Мбайт (13%)
    Заголовок : AC3, словно река, 5.1 ch, в большинстве случаев, 384 kbps - оригинал
    Язык : English
    Default : Нет
    Forced : Нет
    Текст #1
    Идентификатор : 5
    Формат : UTF-8
    Идентификатор кодека : S_TEXT/UTF8
    Идентификатор кодека/Информация : UTF-8 Plain Text
    Язык : Russian
    Default : Нет
    Forced : Нет
    Текст #2
    Идентификатор : 6
    Формат : UTF-8
    Идентификатор кодека : S_TEXT/UTF8
    Идентификатор кодека/Информация : UTF-8 Plain Text
    Язык : English
    Default : Нет
    Forced : Нет
    Меню
    00:00:00.000 : en:00:00:00.000
    00:06:40.275 : en:00:06:40.275
    00:11:26.519 : en:00:11:26.519
    00:17:07.276 : en:00:17:07.276
    00:23:02.423 : en:00:23:02.423
    00:27:21.723 : en:00:27:21.723
    00:32:43.170 : en:00:32:43.170
    00:41:10.051 : en:00:41:10.051
    00:47:02.820 : en:00:47:02.820
    00:53:04.056 : en:00:53:04.056
    00:58:29.715 : en:00:58:29.715
    01:03:40.358 : en:01:03:40.358
    01:08:30.273 : en:01:08:30.273
    01:15:07.211 : en:01:15:07.211
    01:22:56.847 : en:01:22:56.847
    01:28:59.626 : en:01:28:59.626


    Скриншоты для ознакомления




    Онлайн видео Наваждение



    Наваждение/Obsession (1976) BDRip [H.264]
    загрузка...
    Рейтинг →
     (голосов: 1, оценка 4/5, голосовать можно 1 раз )

    Другие торренты по теме:

  • Наваждение / Obsession (1976) Blu-ray [H.264 / 1080p]
  • Наваждение / Obsession (1976) BDRemux [H.264 / 1080p]
  • Наваждение / Obsession (1976) BDRip [H.264 / 1080p]
  • Наваждение / Obsession (1976) BDRip [H.264 / 720p]
  • Наваждение / Obsession (1976) BDRip


    • Комментарии (0):

      Информация

      Информация

        Посетители, находящиеся в группе Гости, не могут оставлять комментарии в данной новости.

        ↓ Меню




        ↓ Опрос

        Вы добавили сайт в закладки?
        Да
        Нет


        Top 10 за месяц (Фильмы)