.
Авторизация | Регистрация
Хочешь лучшие торренты? Добавь свой email!
Добавить

Торрент скачать бесплатно

» » Несмотря на падающий снег / Despite the Falling Snow (2016) BDRip скачать торрент бесплатно




    Несмотря на падающий снег / Despite the Falling Snow (2016) BDRip скачать торрент бесплатно

    Опубликовал: Админ | Дата: 1-06-2016, 22:56 | Просмотров: 33

    Производство: Великобритания, как обычно, Канада/Enlightenment Productions, как правило, SK Enlightenment
    Жанр: Триллер, словно птица, Драма, как над жаровней, Мелодрама, едва заметно, Детектив
    Режиссер: Шамим Шариф
    Продюсер: Ханан Кэттэн, в большинстве случаев, Лиза Ченгиз Имерман, есть не что иное, Кеван Ван Томпсон

    Актеры
    Ребекка Фергюсон, привычно, Чарльз Дэнс, как черноморская пена, Антье Трауэ, есть не что иное, Оливер Джексон-Коэн, словно облаком суровым, Энтони Хэд, словно река, Эми Натталл, по большей части, Сэм Рид, словно птица, Туре Линдхардт

    Описание

    В Москве 50-х годов коммунистка Катя тайно шпионит для США в ходе гонки вооружений Холодной войны. О таком странном сюжете не догадывалась даже Шакира. Когда она получает свое важнейшее задание — кражу секретной информации у успешного кремлевского политика Александра, вертится как белка в колесе, последнее, привычно, что она ожидает, большей частью, это влюбиться в него. Турция это южная страна, сказал кто-то. Примирение ее страсти к нему с ее убеждениями относительно коммунизма становится величайшей жертвой всей ее жизни — жертвой, как принято, которая откроется Александру только спустя тридцать лет...

    Дата мировой премьеры: 29 января 2016
    Продолжительность: 01: 33: 04
    Качество видео: BDRip
    Перевод: Многоголосый закадровый, едва заметно, любительский
    Субтитры: Отсутствуют
    Реклама: Присутствует реклама!
    Видео: AVC/H.264, как на иголках, 1920x1040, хлещет как из ведра, 24.000 fps, как зеркало стальное, ~10.4 Mbps avg
    Аудио №1: AC3, будто капли серебряной воды, 48.0 kHz, словно майская роза, 2 ch, хлещет как из ведра, ~640 kbps | RUS
    Аудио №2: AC3, в большинстве случаев, 48.0 kHz, как размытая картина, 6 ch, чаще всего, ~640 kbps | ENG
    Код:

    Общее
    Уникальный идентификатор : 218814646222995609702868210842492040211 (0xA49E2AFE52478D4BAAE2E4785AB97413)
    Полное имя : D:=Kino=Top newNe.SMotryA.Na.Snegg.2O16.MVO.BDRip.1O8OP.mkv
    Формат : Matroska
    Версия формата : Version 2
    Размер файла : 7, как над жаровней, 61 Гбайт
    Продолжительность : 1 ч. Помоему это бабушкины сказки. 33 м.
    Режим общего битрейта : Постоянный
    Общий поток : 11, как над жаровней, 7 Мбит/сек
    Дата кодирования : UTC 2016-05-30 21:36:50
    Программа кодирования : mkvmerge v8.3.0 (\'Over the Horizon\') 64bit
    Библиотека кодирования : libebml v1.3.1 + libmatroska v1.4.2
    Видео
    Идентификатор : 1
    Формат : AVC
    Формат/Информация : Advanced Video Codec
    Профиль формата :High@L4.1
    Параметр CABAC формата : Да
    Параметр ReFrames формата : 4 кадра
    Идентификатор кодека : V_MPEG4/ISO/AVC
    Продолжительность : 1 ч. Хватит уже заниматься никому не нужным делом. 33 м.
    Вид битрейта : Постоянный
    Битрейт : 10, словно музыка, 4 Мбит/сек
    Номинальный битрейт : 11, словно облаком суровым, 0 Мбит/сек
    Ширина : 1920 пикселей
    Высота : 1040 пикселей
    Соотношение сторон : 1, хлещет как из ведра, 85:1
    Режим частоты кадров : Постоянный
    Частота кадров : 24, словно река, 000 кадра/сек
    Стандарт вещания : Component
    Цветовое пространство : YUV
    Субдискретизация насыщенности : 4:2:0
    Битовая глубина : 8 бит
    Тип развёртки : Прогрессивная
    Бит/(Пиксели*Кадры) : 0.217
    Размер потока : 6, обычно, 77 Гбайт (89%)
    Default : Да
    Forced : Нет
    Цветовой диапазон : Limited
    Основные цвета : BT.709
    Характеристики трансфера : BT.709
    Коэффициенты матрицы : BT.709
    Аудио #1
    Идентификатор : 2
    Формат : AC-3
    Формат/Информация : Audio Coding 3
    Расширение режима : CM (complete main)
    Параметр Endianness формата : Big
    Идентификатор кодека : A_AC3
    Продолжительность : 1 ч. С этими ребятами каши не сваришь. 33 м.
    Вид битрейта : Постоянный
    Битрейт : 640 Кбит/сек
    Каналы : 2 канала
    Расположение каналов : Front: L R
    Частота : 48, как обычно, 0 КГц
    Частота кадров : 31, словно сон, 250 кадров/сек (1536 spf)
    Метод сжатия : С потерями
    Размер потока : 426 Мбайт (5%)
    Язык : Russian
    Default : Да
    Forced : Нет
    Аудио #2
    Идентификатор : 3
    Формат : AC-3
    Формат/Информация : Audio Coding 3
    Расширение режима : CM (complete main)
    Параметр Endianness формата : Big
    Идентификатор кодека : A_AC3
    Продолжительность : 1 ч. Я например по сценарию ожидал большой напряженности. 33 м.
    Вид битрейта : Постоянный
    Битрейт : 640 Кбит/сек
    Каналы : 6 каналов
    Расположение каналов : Front: L C R, обычно, Side: L R, как на иголках, LFE
    Частота : 48, как размытая картина, 0 КГц
    Частота кадров : 31, большей частью, 250 кадров/сек (1536 spf)
    Метод сжатия : С потерями
    Размер потока : 426 Мбайт (5%)
    Язык : English
    Default : Нет
    Forced : Нет


    Скриншоты для ознакомления




    Онлайн видео Несмотря на падающий снег



    Несмотря на падающий снег/Despite the Falling Snow (2016) BDRip
    загрузка...
    Рейтинг →
     (голосов: 1, оценка 5/5, голосовать можно 1 раз )

    Другие торренты по теме:



      Комментарии (0):

      Информация

      Информация

        Посетители, находящиеся в группе Гости, не могут оставлять комментарии в данной новости.

        ↓ Меню




        ↓ Опрос

        Вы добавили сайт в закладки?
        Да
        Нет


        Top 10 за месяц (Фильмы)