.
Авторизация | Регистрация
Хочешь лучшие торренты? Добавь свой email!
Добавить

Торрент скачать бесплатно

» » Несмотря на падающий снег / Despite the Falling Snow (2016) BDRip торрент скачать бесплатно




    Несмотря на падающий снег / Despite the Falling Snow (2016) BDRip торрент скачать бесплатно

    Опубликовал: Админ | Дата: 1-06-2016, 22:56 | Просмотров: 33

    Производство: Великобритания, Канада/Enlightenment Productions, SK Enlightenment
    Жанр: Триллер, Драма, Мелодрама, Детектив
    Режиссер: Шамим Шариф
    Продюсер: Ханан Кэттэн, Лиза Ченгиз Имерман, Кеван Ван Томпсон

    Актеры
    Ребекка Фергюсон, Чарльз Дэнс, Антье Трауэ, Оливер Джексон-Коэн, Энтони Хэд, Эми Натталл, Сэм Рид, Туре Линдхардт

    Описание

    В Москве 50-х годов коммунистка Катя тайно шпионит для США в ходе гонки вооружений Холодной войны. О таком странном сюжете не догадывалась даже Шакира. Когда она получает свое важнейшее задание — кражу секретной информации у успешного кремлевского политика Александра, последнее, что она ожидает, это влюбиться в него. Примирение ее страсти к нему с ее убеждениями относительно коммунизма становится величайшей жертвой всей ее жизни — жертвой, которая откроется Александру только спустя тридцать лет...

    Дата мировой премьеры: 29 января 2016
    Продолжительность: 01: 33: 04
    Качество видео: BDRip
    Перевод: Многоголосый закадровый, любительский
    Субтитры: Отсутствуют
    Реклама: Присутствует реклама!
    Видео: AVC/H.264, 1920x1040, 24.000 fps, ~10.4 Mbps avg
    Аудио №1: AC3, 48.0 kHz, 2 ch, ~640 kbps | RUS
    Аудио №2: AC3, 48.0 kHz, 6 ch, ~640 kbps | ENG
    Код:

    Общее
    Уникальный идентификатор : 218814646222995609702868210842492040211 (0xA49E2AFE52478D4BAAE2E4785AB97413)
    Полное имя : D:=Kino=Top newNe.SMotryA.Na.Snegg.2O16.MVO.BDRip.1O8OP.mkv
    Формат : Matroska
    Версия формата : Version 2
    Размер файла : 7, 61 Гбайт
    Продолжительность : 1 ч. 33 м.
    Режим общего битрейта : Постоянный
    Общий поток : 11, 7 Мбит/сек
    Дата кодирования : UTC 2016-05-30 21:36:50
    Программа кодирования : mkvmerge v8.3.0 (\'Over the Horizon\') 64bit
    Библиотека кодирования : libebml v1.3.1 + libmatroska v1.4.2
    Видео
    Идентификатор : 1
    Формат : AVC
    Формат/Информация : Advanced Video Codec
    Профиль формата :High@L4.1
    Параметр CABAC формата : Да
    Параметр ReFrames формата : 4 кадра
    Идентификатор кодека : V_MPEG4/ISO/AVC
    Продолжительность : 1 ч. 33 м.
    Вид битрейта : Постоянный
    Битрейт : 10, 4 Мбит/сек
    Номинальный битрейт : 11, 0 Мбит/сек
    Ширина : 1920 пикселей
    Высота : 1040 пикселей
    Соотношение сторон : 1, 85:1
    Режим частоты кадров : Постоянный
    Частота кадров : 24, 000 кадра/сек
    Стандарт вещания : Component
    Цветовое пространство : YUV
    Субдискретизация насыщенности : 4:2:0
    Битовая глубина : 8 бит
    Тип развёртки : Прогрессивная
    Бит/(Пиксели*Кадры) : 0.217
    Размер потока : 6, 77 Гбайт (89%)
    Default : Да
    Forced : Нет
    Цветовой диапазон : Limited
    Основные цвета : BT.709
    Характеристики трансфера : BT.709
    Коэффициенты матрицы : BT.709
    Аудио #1
    Идентификатор : 2
    Формат : AC-3
    Формат/Информация : Audio Coding 3
    Расширение режима : CM (complete main)
    Параметр Endianness формата : Big
    Идентификатор кодека : A_AC3
    Продолжительность : 1 ч. 33 м.
    Вид битрейта : Постоянный
    Битрейт : 640 Кбит/сек
    Каналы : 2 канала
    Расположение каналов : Front: L R
    Частота : 48, 0 КГц
    Частота кадров : 31, 250 кадров/сек (1536 spf)
    Метод сжатия : С потерями
    Размер потока : 426 Мбайт (5%)
    Язык : Russian
    Default : Да
    Forced : Нет
    Аудио #2
    Идентификатор : 3
    Формат : AC-3
    Формат/Информация : Audio Coding 3
    Расширение режима : CM (complete main)
    Параметр Endianness формата : Big
    Идентификатор кодека : A_AC3
    Продолжительность : 1 ч. 33 м.
    Вид битрейта : Постоянный
    Битрейт : 640 Кбит/сек
    Каналы : 6 каналов
    Расположение каналов : Front: L C R, Side: L R, LFE
    Частота : 48, 0 КГц
    Частота кадров : 31, 250 кадров/сек (1536 spf)
    Метод сжатия : С потерями
    Размер потока : 426 Мбайт (5%)
    Язык : English
    Default : Нет
    Forced : Нет


    Скриншоты для ознакомления




    Онлайн видео Несмотря на падающий снег



    Несмотря на падающий снег/Despite the Falling Snow (2016) BDRip
    загрузка...
    Рейтинг →
     (голосов: 1, оценка 4/5, голосовать можно 1 раз )

    Другие торренты по теме:

  • Несмотря на падающий снег / Despite the Falling Snow (2016) BDRip [H.264 / 720p] [EN]
  • Несмотря на падающий снег / Despite the Falling Snow (2016) BDRip [H.264 / 1080p] [EN]
  • Несмотря на падающий снег / Despite the Falling Snow (2016) BDRip [H.264 / 1080p] [EN]
  • Несмотря на падающий снег / Despite the Falling Snow (2016) HDRip
  • Несмотря на падающий снег / Despite the Falling Snow (2016) BDRip [H.264 / 720p]


    • Комментарии (0):

      Информация

      Информация

        Посетители, находящиеся в группе Гости, не могут оставлять комментарии в данной новости.

        ↓ Меню




        ↓ Опрос

        Вы добавили сайт в закладки?
        Да
        Нет


        Top 10 за месяц (Фильмы)