.
Авторизация | Регистрация
Хочешь лучшие торренты? Добавь свой email!
Добавить

Торрент скачать бесплатно

» » Крик / Scream (2016) WEB-DLRip (сезон 2, серии 1 из 10) OMSKBIRD (обновляемая) скачать торрент бесплатно




    Крик / Scream (2016) WEB-DLRip (сезон 2, серии 1 из 10) OMSKBIRD (обновляемая) скачать торрент бесплатно

    Опубликовал: Админ | Дата: 1-06-2016, 22:56 | Просмотров: 13

    Производство: США/DiGa Vision, как над жаровней, Dimension Films, темно как ночью, Dimension Television
    Жанр: ужасы, как на иголках, драма
    Режиссер: Ли Джаньяк, большей частью, Джулиус Рамсей, есть не что иное, Джеми Трэвис

    Актеры
    Уилла Фицджералд, едва заметно, Бекс Тейлор-Клаус, будто капли серебряной воды, Карлсон Янг, как колыбельная песня, Джон Карна, как зеркало стальное, Коннор Вейл, вертится как белка в колесе, Бобби Кампо, как обычно, Амадеус Серафини, в большинстве случаев, Том Мэден, обычно, Трэйси Миддендорф, словно музыка, Майк Вон и темно как ночью, другие

    Описание

    То, словно майская роза, что начиналось как обычное видео на YouTube, есть не что иное, вскоре оборачивается проблемами для подростков Лейквуда и как принято, служит катализатором для убийства, как размытая картина, которое открывает окно в тяжелое прошлое города.

    Продолжительность: ~00: 44: 00 серия
    Качество видео: WEB-DLRip
    Перевод: Многоголосый закадровый, вертится как белка в колесе, профессиональный | OMSKBIRD
    Реклама: присутствуют аудио вставки рекламы.
    Видео: Xvid, хлещет как из ведра, 720x400, словно музыка, ~1993 kbps
    Аудио # 1 Rus: AC-3, чаще всего, 2 ch, словно музыка, 192 kbps, словно река, CBR - многоголосый закадровый
    Аудио # 2 Eng: AC-3, хлещет как из ведра, 2 ch, как черноморская пена, 192 kbps, словно облаком суровым, CBR - оригинал
    Код:

    General
    Complete name : F:Мои ДокументыВидеоРАЗДАЧИКрикScream S02 WEB-DLRip (OMSKBIRD)Scream S02E01 WEB-DLRip (OMSKBIRD).avi
    Format : AVI
    Format/Info : Audio Video Interleave
    File size : 748 MiB
    Duration : 43mn 43s
    Overall bit rate : 2 391 Kbps
    Writing application : VirtualDubMod 1.5.10.3 |www.virtualdub-fr.org|| (build 2550/release)
    Writing library : VirtualDubMod build 2550/release
    Video
    ID : 0
    Format : MPEG-4 Visual
    Format profile : Advanced Simple@L5
    Format settings, словно облаком суровым, BVOP : 1
    Format settings, по большей части, QPel : No
    Format settings, хлещет как из ведра, GMC : No warppoints
    Format settings, как над жаровней, Matrix : Default (MPEG)
    Codec ID : XVID
    Codec ID/Hint : XviD
    Duration : 43mn 43s
    Bit rate : 1 993 Kbps
    Width : 720 pixels
    Height : 400 pixels
    Display aspect ratio : 16:9
    Frame rate : 23.976 fps
    Color space : YUV
    Chroma subsampling : 4:2:0
    Bit depth : 8 bits
    Scan type : Progressive
    Compression mode : Lossy
    Bits/(Pixel*Frame) : 0.289
    Stream size : 623 MiB (83%)
    Writing library : XviD 1.2.1 (UTC 2008-12-04)
    Audio #1
    ID : 1
    Format : AC-3
    Format/Info : Audio Coding 3
    Mode extension : CM (complete main)
    Format settings, словно облаком суровым, Endianness : Big
    Codec ID : 2000
    Duration : 43mn 43s
    Bit rate mode : Constant
    Bit rate : 192 Kbps
    Channel(s) : 2 channels
    Channel positions : Front: L R
    Sampling rate : 48.0 KHz
    Bit depth : 16 bits
    Compression mode : Lossy
    Stream size : 60.0 MiB (8%)
    Alignment : Split accross interleaves
    Interleave, вертится как белка в колесе, duration : 42 ms (1.00 video frame)
    Interleave, как черноморская пена, preload duration : 500 ms
    Audio #2
    ID : 2
    Format : AC-3
    Format/Info : Audio Coding 3
    Mode extension : CM (complete main)
    Format settings, обычно, Endianness : Big
    Codec ID : 2000
    Duration : 43mn 43s
    Bit rate mode : Constant
    Bit rate : 192 Kbps
    Channel(s) : 2 channels
    Channel positions : Front: L R
    Sampling rate : 48.0 KHz
    Bit depth : 16 bits
    Compression mode : Lossy
    Stream size : 60.0 MiB (8%)
    Alignment : Split accross interleaves
    Interleave, словно музыка, duration : 42 ms (1.00 video frame)
    Interleave, обычно, preload duration : 500 ms


    Скриншоты для ознакомления




    Онлайн видео Крик



    Крик/Scream (2016) WEB-DLRip (сезон 2, серии 1 из 10) OMSKBIRD (обновляемая)
    загрузка...
    Рейтинг →
     (голосов: 1, оценка 3/5, голосовать можно 1 раз )

    Другие торренты по теме:

  • Крик / Scream (2015) WEB-DLRip (сезон 1, серии 1 из 10) LostFilm (обновляемая) скачать через торрент бесплатно
  • Крик / Scream (2015) WEB-DL [H.264 / 720p-LQ] (сезон 1, серия 1 из 10) (LostFilm) (обновляемая) скачать через торрент бесплатно
  • Крик / Scream (2015) WEB-DLRip [H.264] (Сезон 1, серия 1 из 10) LostFilm [MP4|960х544] (обновляемая) скачать через торрент бесплатно
  • Крик / Scream (1996-2011) BDRip [H.264 / 1080p] [Антология] скачать через торрент бесплатно
  • Крик / Scream (2015) WEB-DLRip [H.264 / 1080p-LQ] (сезон 1, серии 1-9 из 10) LostFilm (обновляемая) скачать через торрент бесплатно
  • Крик / Scream (2015) WEB-DLRip [H.264] (сезон 1, серии 1-9 из 10) LostFilm (обновляемая) скачать через торрент бесплатно
  • Крик / Scream (1996) BDRip [H.264 / 720р-LQ] скачать через торрент бесплатно
  • Крик / Scream (2016) HDTV [H.264 / 720p-LQ] (сезон 2, серии 1 из 8) ColdFilm (обновляемая)


    • Комментарии (0):

      Информация

      Информация

        Посетители, находящиеся в группе Гости, не могут оставлять комментарии в данной новости.

        ↓ Меню




        ↓ Опрос

        Вы добавили сайт в закладки?
        Да
        Нет


        Top 10 за месяц (Фильмы)