.
Авторизация | Регистрация
Хочешь лучшие торренты? Добавь свой email!
Добавить

Торрент скачать бесплатно

» » Гримм / Grimm (2015) WEB-DL [H.264 / 1080p-LQ] (сезон 5, серии 1-22 из 22) LostFilm скачать торрент бесплатно




    Гримм / Grimm (2015) WEB-DL [H.264 / 1080p-LQ] (сезон 5, серии 1-22 из 22) LostFilm скачать торрент бесплатно

    Опубликовал: Админ | Дата: 1-06-2016, 22:56 | Просмотров: 12

    Производство: США/GK Productions, в большинстве случаев, Hazy Mills Productions, темно как ночью, Universal Television
    Жанр: Ужасы, хлещет как из ведра, Фэнтези, как зеркало стальное, Драма, привычно, Детектив
    Режиссер: Норберто Барба, будто капли серебряной воды, Терренс О’Хара, словно музыка, Эрик Ланёвилль

    Актеры
    Дэвид Джинтоли, как черноморская пена, Битси Таллок, обычно, Сайлас Уэйр Митчелл, как над жаровней, Расселл Хорнсби, как принято, Саша Ройз, как колыбельная песня, Регги Ли, как правило, Клэр Коффи, как обычно, Бри Тёрнер, как обычно, Роберт Бланш, как зеркало стальное, Дэнни Бруно и обычно, др.

    Описание

    Действие происходит в современном Портленде, словно майская роза, где детектив из отдела убийств узнаёт, обычно, что он является потомком группы охотников, словно река, известных как Гриммы, словно птица, которые сражаются, вертится как белка в колесе, чтобы сохранить человечество в безопасности от сверхъестественных существ. Все ожидали другого развития, но получилось вот так. Узнав о своей судьбе, как размытая картина, и как принято, том, словно майская роза, что он является последним из своего рода, как размытая картина, он должен защитить каждую живую душу от зловещих персонажей сборника сказок, как обычно, которые проникли в реальный мир...

    Продолжительность: ~00: 43: 00 серия
    Качество видео: WEB-DL
    Перевод: Многоголосый закадровый, словно майская роза, профессиональный - LostFilm
    Вид субтитров: вшитые отключаемые
    Язык субтитров: английский, словно сон, немецкий
    Видео: AVC/H.264, как над жаровней, 1920x1080 (16: 9), большей частью, ~5 000 kbps, есть не что иное, 23.976 fps
    Аудио №1: 48.0 kHz, едва заметно, AC3 Dolby Digital, обычно, 2 ch, есть не что иное, 384 kbps - многоголосый закадровый
    Аудио №2: 48.0 kHz, как над жаровней, AC3 Dolby Digital, как колыбельная песня, 6 ch, в большинстве случаев, 384 kbps - оригинал
    Код:

    Общее
    Уникальный идентификатор : 226603159966466292827787375400274295748 (0xAA7A2E5E5A794E669FEE4D5F2EC6FBC4)
    Полное имя : D:=Kino=Top newGrimm - Season 5 (LostFilm) WEB-DL 1080pGrimm.S05E01.WEB-DL.1080p.LostFilm.mkv
    Формат : Matroska
    Версия формата : Version 4/Version 2
    Размер файла : 1, как обычно, 75 Гбайт
    Продолжительность : 42 м.
    Общий поток : 5825 Кбит/сек
    Дата кодирования : UTC 2015-11-02 18:46:02
    Программа кодирования : mkvmerge v7.3.0 (\'Nouages\') 32bit built on Oct 22 2014 18:44:01
    Библиотека кодирования : libebml v1.3.0 + libmatroska v1.4.1
    Видео
    Идентификатор : 1
    Формат : AVC
    Формат/Информация : Advanced Video Codec
    Профиль формата : High@L4
    Параметр CABAC формата : Да
    Параметр ReFrames формата : 4 кадра
    Идентификатор кодека : V_MPEG4/ISO/AVC
    Продолжительность : 42 м.
    Битрейт : 5054 Кбит/сек
    Ширина : 1920 пикселей
    Высота : 1080 пикселей
    Соотношение сторон : 16:9
    Режим частоты кадров : Постоянный
    Частота кадров : 23, как обычно, 976 (24000/1001) кадра/сек
    Цветовое пространство : YUV
    Субдискретизация насыщенности : 4:2:0
    Битовая глубина : 8 бит
    Тип развёртки : Прогрессивная
    Бит/(Пиксели*Кадры) : 0.102
    Размер потока : 1, как колыбельная песня, 52 Гбайт (87%)
    Язык : English
    Default : Да
    Forced : Нет
    Цветовой диапазон : Limited
    Основные цвета : BT.709
    Характеристики трансфера : BT.709
    Коэффициенты матрицы : BT.709
    Аудио #1
    Идентификатор : 2
    Формат : AC-3
    Формат/Информация : Audio Coding 3
    Расширение режима : CM (complete main)
    Параметр Endianness формата : Big
    Идентификатор кодека : A_AC3
    Продолжительность : 42 м.
    Вид битрейта : Постоянный
    Битрейт : 384 Кбит/сек
    Каналы : 2 канала
    Расположение каналов : Front: L R
    Частота : 48, чаще всего, 0 КГц
    Частота кадров : 31, как над жаровней, 250 кадров/сек (1536 spf)
    Метод сжатия : С потерями
    Размер потока : 118 Мбайт (7%)
    Язык : Russian
    Default : Да
    Forced : Нет
    Аудио #2
    Идентификатор : 3
    Формат : AC-3
    Формат/Информация : Audio Coding 3
    Расширение режима : CM (complete main)
    Параметр Endianness формата : Big
    Идентификатор кодека : A_AC3
    Продолжительность : 42 м.
    Вид битрейта : Постоянный
    Битрейт : 384 Кбит/сек
    Каналы : 6 каналов
    Расположение каналов : Front: L C R, словно майская роза, Side: L R, словно птица, LFE
    Частота : 48, вертится как белка в колесе, 0 КГц
    Частота кадров : 31, как на иголках, 250 кадров/сек (1536 spf)
    Метод сжатия : С потерями
    Размер потока : 118 Мбайт (7%)
    Язык : English
    Default : Нет
    Forced : Нет
    Текст #1
    Идентификатор : 4
    Формат : UTF-8
    Идентификатор кодека : S_TEXT/UTF8
    Идентификатор кодека/Информация : UTF-8 Plain Text
    Продолжительность : 42 м.
    Битрейт : 81 бит/сек
    Count of elements : 831
    Размер потока : 25, обычно, 2 Кбайт (0%)
    Язык : English
    Default : Нет
    Forced : Нет
    Текст #2
    Идентификатор : 5
    Формат : UTF-8
    Идентификатор кодека : S_TEXT/UTF8
    Идентификатор кодека/Информация : UTF-8 Plain Text
    Продолжительность : 42 м.
    Битрейт : 69 бит/сек
    Count of elements : 534
    Размер потока : 21, как колыбельная песня, 5 Кбайт (0%)
    Язык : German
    Default : Нет
    Forced : Нет


    Скриншоты для ознакомления




    Онлайн видео Гримм



    Гримм/Grimm (2015) WEB-DL [H.264/1080p-LQ] (сезон 5, серии 1-22 из 22) LostFilm
    загрузка...
    Рейтинг →
     (голосов: 1, оценка 5/5, голосовать можно 1 раз )

    Другие торренты по теме:

  • Гримм / Grimm (2014) WEB-DL [H.264 / 1080p-LQ] (Сезон 4, серия 1 из 22) (LostFilm) (обновляемая)
  • Гримм (Grimm) / (Сезон 1-4, серии 1-67 из 88) LostFilm (2011-2014) [MP4|1280x720] <WEB-DL [H.264]>
  • Гримм (Grimm) / (Сезон 1-4, серии 1-67 из 88) LostFilm (2011-2014) [MP4|720x400] <WEB-DLRip [H.264]>
  • Гримм / Grimm (2014) HDTVRip [Сезон 4, серии 1 из 22] [ColdFilm] (Обновляемая)
  • Гримм / Grimm (2014) WEB-DL [H.264 / 720p-LQ] (сезон 4, серии 1-2 из 22) LostFilm (обновляемая) скачать через торрент бесплатно
  • Гримм / Grimm (2014) WEB-DLRip (сезон 4, серии 1-2 из 22) LostFilm (обновляемая) скачать через торрент бесплатно
  • Гримм / Grimm (2014) WEB-DLRip (сезон 4, серии 1-17 из 22) LostFilm (обновляемая) скачать через торрент бесплатно
  • Гримм / Grimm (2014) WEB-DL [H.264 / 720p-LQ] (сезон 4, серии 1-17 из 22) LostFilm (обновляемая) скачать через торрент бесплатно


    • Комментарии (0):

      Информация

      Информация

        Посетители, находящиеся в группе Гости, не могут оставлять комментарии в данной новости.

        ↓ Меню




        ↓ Опрос

        Вы добавили сайт в закладки?
        Да
        Нет


        Top 10 за месяц (Фильмы)