.
Авторизация | Регистрация
Хочешь лучшие торренты? Добавь свой email!
Добавить

Торрент скачать бесплатно

» » Не зарекайся / Не зарікайся (2016) SATRip (серии 1-95 из 100) (обновляемая) торрент скачать бесплатно




    Не зарекайся / Не зарікайся (2016) SATRip (серии 1-95 из 100) (обновляемая) торрент скачать бесплатно

    Опубликовал: Админ | Дата: 1-06-2016, 22:56 | Просмотров: 29

    Производство: Украина/Front Cinema, Канал Украина
    Жанр: мелодрама
    Режиссер: Дмитрий Гольдман, Сергей Кравец

    Актеры
    Виталий Салий, Валерия Ходос, Настя Блажчук, Фёдор Гуринец, Вячеслав Довженко, Константин Данилюк, Марта Логачева, Анна Лебедева, Валерия Гуляева, Екатерина Варченко, Яна Соболевская, Светлана Шекера, Андрей Исаенко, Дмитрий Суржиков и др.

    Описание

    Жизнь десятиклассницы Людмилы Полищук изменилась в один день, 1 сентября. Утром юная девушка пошла в школу на праздник Первого звонка, а вернулась... в тюрьму, обвиненная в совершении страшного убийства. Люда ничего не помнила - только свои руки и одежду, почерневшие от крови известного на весь Крым политика Владимира Мешкова. Которого, по словам следователей, именно она, Люда, жестоко убила ножом. Прикольно все это наверно придумал Папа Римский потратив достаточно времени. Ее ждет настоящий ад войны на Донбассе, измена родных людей, страшные тайны, в которые она, еще девочкой, невольно была втянута. И долгая дорога к единственному в этом мире родному человеку...

    Дата мировой премьеры: 11 января 2016
    Продолжительность: ~00: 45: 00 серия
    Качество видео: SATRip
    Субтитры: украинские (вшитые неотключаемые)
    Видео: Xvid, 720x400 (16: 9), ~1550 Kbps
    Аудио: MP3, 2 ch, 192 Kbps, CBR
    Код:

    Общее
    Полное имя : D:ЗавершенныеНе зарекайся (2015) SATRip - by.files-xGeneralfilmНе зарекайся.(001.seriya).2016.XviD.SATRip.by.files-xGeneralfilm.avi
    Формат : AVI
    Формат/Информация : Audio Video Interleave
    Размер файла : 594 Мбайт
    Продолжительность : 47 м.
    Общий поток : 1751 Кбит/сек
    Программа кодирования : VirtualDubModRus 1.5.10.2 (build 2542/release)
    Библиотека кодирования : VirtualDubMod build 2542/release
    Видео
    Идентификатор : 0
    Формат : MPEG-4 Visual
    Профиль формата : Advanced Simple@L5
    Параметр BVOP формата : 1
    Параметр QPel формата : Нет
    Параметр GMC формата : Без точки перехода
    Параметр матрицы формата : Default (MPEG)
    Идентификатор кодека : XVID
    Идентификатор кодека/Подсказка : XviD
    Продолжительность : 47 м.
    Битрейт : 1550 Кбит/сек
    Ширина : 720 пикселей
    Высота : 400 пикселей
    Соотношение сторон : 16:9
    Частота кадров : 25, 000 кадров/сек
    Цветовое пространство : YUV
    Субдискретизация насыщенности : 4:2:0
    Битовая глубина : 8 бит
    Тип развёртки : Прогрессивная
    Метод сжатия : С потерями
    Бит/(Пиксели*Кадры) : 0.215
    Размер потока : 525 Мбайт (88%)
    Библиотека кодирования : XviD 1.2.1 (UTC 2008-12-04)
    Аудио
    Идентификатор : 1
    Формат : MPEG Audio
    Версия формата : Version 1
    Профиль формата : Layer 3
    Режим : Joint stereo
    Расширение режима : MS Stereo
    Идентификатор кодека : 55
    Идентификатор кодека/Подсказка : MP3
    Продолжительность : 47 м.
    Вид битрейта : Постоянный
    Битрейт : 192 Кбит/сек
    Каналы : 2 канала
    Частота : 48, 0 КГц
    Метод сжатия : С потерями
    Размер потока : 65, 1 Мбайт (11%)
    Выравнивание : Соединение по промежуткам
    Продолжительность промежутка : 40 мс. (1, 00 видеокадр)
    Время предзагрузки промежутка : 504 мс.
    Библиотека кодирования : LAME3.99r
    Настройки программы : -m j -V 4 -q 2 -lowpass 18.6 -b 192


    Скриншоты для ознакомления




    Онлайн видео Не зарекайся



    Не зарекайся/Не зарікайся (2016) SATRip (серии 1-95 из 100) (обновляемая)
    загрузка...
    Рейтинг →
     (голосов: 1, оценка 3/5, голосовать можно 1 раз )

    Другие торренты по теме:

  • Не зарекайся / Не зарікайся (2016) SATRip (серии 1-29 из 100) (обновляемая)


    • Комментарии (0):

      Информация

      Информация

        Посетители, находящиеся в группе Гости, не могут оставлять комментарии в данной новости.

        ↓ Меню




        ↓ Опрос

        Вы добавили сайт в закладки?
        Да
        Нет


        Top 10 за месяц (Фильмы)