.
Авторизация | Регистрация
Хочешь лучшие торренты? Добавь свой email!
Добавить

Торрент скачать бесплатно

» » Физрук (2016) WEB-DLRip [H.264] (сезон 3, серии 1-21 из 21) торрент скачать бесплатно



    Физрук (2016) WEB-DLRip [H.264] (сезон 3, серии 1-21 из 21) торрент скачать бесплатно

    Опубликовал: Админ | Дата: 31-05-2016, 04:00 | Просмотров: 60

    Производство: Россия/Good Story Media по заказу ТНТ
    Жанр: комедия
    Режиссер: Сергей Сенцов

    Актеры
    Дмитрий Нагиев, Александр Гордон, Полина Гренц, Анастасия Панина, Владимир Сычёв, Даниил Вахрушев, Андрей Крыжний, Артур Сопельник, Оксана Сидоренко, Карина Мишулина и др.

    Описание

    Во время финального судебного заседания с Олега Евгеньевича Фомина снимают все обвинения. Самое интересное в это истории, что об этом Басков ничего не знал. Оказавшись на свободе, он видит, что жизнь его друзей и близких сильно изменилась. О таком странном сюжете не догадывалась даже Ольга Полякова. У Психа кризис среднего возраста, Таня строит новые отношения, а Саша Мамаева была вынуждена отдать бизнес отца Лене и теперь едва сводит концы с концами. Когда Фома узнает, что в истории с бизнесом Мамая снова замешана Лена, он понимает, что его долг — вернуть все обратно Саше как законной наследнице. Но сделать это будет очень непросто: на стороне Лены деньги, связи и армия головорезов, зато в арсенале Фомы надежная команда и новая невероятная схема, в которой замешаны школа, Татьяна Александровна и даже президент России. Фома собирает вместе всю старую банду, а также призывает на помощь своего нового друга Мишу по кличке Буддист. Он не просто хороший знакомый Фомы, а его наставник и духовник. Продвигаясь к цели, Фома будет отвечать на многочисленные вопросы Буддиста, главные из которых Кто я? и Каково мое место в мире?. Все вместе они отправятся на поиски истины, счастья и справедливости. Вместо трех у них на всех всего одно заветное желание, и компаньоны уверены, что оно обязательно сбудется.

    Продолжительность: ~00: 25: 00 серия
    Качество видео: WEB-DLRip
    Видео: AVC/H.264, 1024x576 (16: 9), ~2200 Kbps
    Аудио: AC3, 2 ch, 192 Kbps, CBR
    Код:
    Общее
    Уникальный идентификатор : 247694964297468679339961028788228897480 (0xBA58509C11F87660813AAF07F51ABAC8)
    Полное имя : F:DOWNLOADSФизрук (3 сезон любимого сериала) (2016) WEB-DLRip [H.264]Физрук 3 - 01 серия.mkv
    Формат : Matroska
    Версия формата : Version 2
    Размер файла : 408 Мбайт
    Продолжительность : 23 м.
    Общий поток : 2393 Кбит/сек
    Дата кодирования : UTC 2016-05-29 06:53:08
    Программа кодирования : mkvmerge v7.8.0 (\'River Man\') 32bit built on Apr 3 2015 12:11:22
    Библиотека кодирования : libebml v1.3.1 + libmatroska v1.4.2
    Видео
    Идентификатор : 1
    Формат : AVC
    Формат/Информация : Advanced Video Codec
    Профиль формата :High@L4.1
    Параметр CABAC формата : Да
    Параметр ReFrames формата : 10 кадров
    Идентификатор кодека : V_MPEG4/ISO/AVC
    Продолжительность : 23 м.
    Битрейт : 2200 Кбит/сек
    Ширина : 1024 пикселя
    Высота : 576 пикселей
    Соотношение сторон : 16:9
    Режим частоты кадров : Постоянный
    Частота кадров : 25, 000 кадров/сек
    Цветовое пространство : YUV
    Субдискретизация насыщенности : 4:2:0
    Битовая глубина : 8 бит
    Тип развёртки : Прогрессивная
    Бит/(Пиксели*Кадры) : 0.149
    Размер потока : 368 Мбайт (90%)
    Библиотека кодирования : x264 core 146 r2538 121396c
    Настройки программы : cabac=1/ref=10/deblock=1:-3:-3/analyse=0x3:0x113/me=umh/subme=11/psy=1/psy_rd=1.00:0.20/mixed_ref=1/me_range=32/chroma_me=1/trellis=2/8x8dct=1/cqm=0/deadzone=21, 11/fast_pskip=0/chroma_qp_offset=-3/threads=12/lookahead_threads=3/sliced_threads=0/nr=0/decimate=0/interlaced=0/bluray_compat=0/constrained_intra=0/bframes=12/b_pyramid=2/b_adapt=2/b_bias=0/direct=3/weightb=1/open_gop=0/weightp=2/keyint=250/keyint_min=25/scenecut=40/intra_refresh=0/rc_lookahead=60/rc=2pass/mbtree=0/bitrate=2200/ratetol=1.0/qcomp=0.60/qpmin=0/qpmax=69/qpstep=4/cplxblur=20.0/qblur=0.5/vbv_maxrate=14000/vbv_bufsize=14000/nal_hrd=none/filler=0/ip_ratio=1.40/pb_ratio=1.30/aq=3:0.80
    Default : Да
    Forced : Нет
    Цветовой диапазон : Limited
    Основные цвета : BT.709
    Характеристики трансфера : BT.709
    Коэффициенты матрицы : BT.709
    Аудио
    Идентификатор : 2
    Формат : AC-3
    Формат/Информация : Audio Coding 3
    Расширение режима : CM (complete main)
    Параметр Endianness формата : Big
    Идентификатор кодека : A_AC3
    Продолжительность : 23 м.
    Вид битрейта : Постоянный
    Битрейт : 192 Кбит/сек
    Каналы : 2 канала
    Расположение каналов : Front: L R
    Частота : 48, 0 КГц
    Частота кадров : 31, 250 кадров/сек (1536 spf)
    Метод сжатия : С потерями
    Размер потока : 32, 8 Мбайт (8%)
    Default : Да
    Forced : Нет


    Скриншоты для ознакомления




    Онлайн видео Физрук (2016) WEB


    Прямая ссылка скачивания через uTorrent


    Физрук (2016) WEB-DLRip [H.264] (сезон 3, серии 1-21 из 21)
    загрузка...
    Рейтинг →
     (голосов: 1, оценка 4/5, голосовать можно 1 раз )

    Другие торренты по теме:

  • Физрук (2014) WEB-DLRip [H.264 / 720p-LQ] (Сезон 2, серии 1-2 из 20) (обновляемая) скачать через торрент бесплатно
  • Физрук (2014) WEB-DLRip (Сезон 2, серии 1 из 20) (обновляемая) скачать через торрент бесплатно
  • Физрук (2014) WEB-DLRip (Сезон 2, серии 1-3 из 20) (обновляемая)
  • Физрук (2014) WEB-DLRip [H.264] (Сезон 2, серии 1-5 из 20) (обновляемая) скачать через торрент бесплатно
  • Физрук (2014) WEB-DLRip [H.264] (Сезон 2, серии 6-13 из 20) (обновляемая) (временная)
  • Физрук (2016) WEB-DLRip (Сезон 3, серии 1-4 из 20) (обновляемая)
  • Физрук (2017) WEB-DLRip [H.264] (сезон 4, серии 1-2 из 21) (Обновляемая)
  • Физрук (2017) WEB-DLRip (сезон 4, серии 1-2 из 20) (обновляемая)


    • Комментарии (0):

      Информация

      Информация

        Посетители, находящиеся в группе Гости, не могут оставлять комментарии в данной новости.

        ↓ Меню




        ↓ Опрос

        Вы добавили сайт в закладки?
        Да
        Нет


        Top 10 за месяц (Фильмы)