.
Авторизация | Регистрация
Хочешь лучшие торренты? Добавь свой email!
Добавить

Торрент скачать бесплатно

» » Последнее королевство / The Last Kingdom (2015) WEB-DLRip [H.264 / 1080p-LQ] (сезон 1, серии 1 из 8) LostFilm (обновляемая) торрент скачать бесплатно



    Последнее королевство / The Last Kingdom (2015) WEB-DLRip [H.264 / 1080p-LQ] (сезон 1, серии 1 из 8) LostFilm (обновляемая) торрент скачать бесплатно

    Опубликовал: Админ | Дата: 31-05-2016, 04:00 | Просмотров: 29

    Производство: Великобритания
    Жанр: Боевик, Мелодрама, История
    Режиссер: Бен Чанан, Энтони Бирн

    Актеры
    Александр Дреймон, Николас Роу, Эмили Кокс, Дэвид Доусон, Иэн Харт, Герард Кернс, Алек Ньюман и др.

    Описание

    Сюжет рассказывает о временах правления короля Уэссекса Альфреда Великого, сумевшего отвоевать английские земли у датских викингов — заморских захватчиков. Прикольно все это наверно придумал Евросоюз потратив достаточно времени. Главным героем повествования выступает ещё в младенчестве похищенный данами Утред — потомок благородного саксонского рода. Воспитанный как викинг, в очень непростой момент жизненного выбора молодой воин должен будет решить для себя, чью сторону он примет в решающих сражениях за судьбу древней Британии.

    Продолжительность: ~01: 00: 00 серия
    Качество видео: WEB-DLRip
    Перевод: Многоголосый закадровый, профессиональный -LostFilm
    Реклама: присутствуют заставка и логотип LostFilm.
    Видео: AVC/H.264, 1920х1080, ~5 242 Kbps, 25.000 fps
    Аудио Rus: AC-3, 384 Kbps, 2 channels, 48.0 KHz - многоголосый закадровый
    Аудио Eng: AC-3, 384 Kbps, 2 channels, 48.0 KHz - оригинал
    Код:

    The.Last.Kingdom.S01E01.1080p.rus.LostFilm.mkv
    Format : Matroska
    Format version : Version 4/Version 2
    File size : 2.49 GiB
    Duration : 59mn 19s
    Overall bit rate : 6 011 Kbps
    Encoded date : UTC 2016-05-29 21:52:26
    Writing application : mkvmerge v8.8.0 (\'Wind at my back\') 64bit
    Writing library : libebml v1.3.3 + libmatroska v1.4.4
    Video
    ID : 1
    Format : AVC
    Format/Info : Advanced Video Codec
    Format profile :High@L4.1
    Format settings, CABAC : Yes
    Format settings, ReFrames : 4 frames
    Codec ID : V_MPEG4/ISO/AVC
    Duration : 59mn 19s
    Bit rate : 5 242 Kbps
    Width : 1 920 pixels
    Height : 1 080 pixels
    Display aspect ratio : 16:9
    Frame rate mode : Constant
    Frame rate : 25.000 fps
    Color space : YUV
    Chroma subsampling : 4:2:0
    Bit depth : 8 bits
    Scan type : Progressive
    Bits/(Pixel*Frame) : 0.101
    Stream size : 2.17 GiB (87%)
    Writing library : x264 core 112 r1834 a51816a
    Encoding settings : cabac=1/ref=4/deblock=1:-3:-2/analyse=0x3:0x113/me=hex/subme=7/psy=1/psy_rd=1.00:0.00/mixed_ref=1/me_range=16/chroma_me=1/trellis=1/8x8dct=1/cqm=0/deadzone=21, 11/fast_pskip=1/chroma_qp_offset=-2/threads=6/sliced_threads=0/nr=0/decimate=1/interlaced=0/constrained_intra=0/bframes=5/b_pyramid=2/b_adapt=1/b_bias=0/direct=1/weightb=1/open_gop=0/weightp=2/keyint=250/keyint_min=25/scenecut=40/intra_refresh=0/rc_lookahead=40/rc=2pass/mbtree=1/bitrate=5242/ratetol=1.0/qcomp=0.60/qpmin=0/qpmax=51/qpstep=4/cplxblur=20.0/qblur=0.5/vbv_maxrate=10000/vbv_bufsize=256000/ip_ratio=1.40/aq=1:1.00/nal_hrd=none
    Default : Yes
    Forced : No
    Audio #1
    ID : 2
    Format : AC-3
    Format/Info : Audio Coding 3
    Mode extension : CM (complete main)
    Format settings, Endianness : Big
    Codec ID : A_AC3
    Duration : 59mn 19s
    Bit rate mode : Constant
    Bit rate : 384 Kbps
    Channel(s) : 2 channels
    Channel positions : Front: L R
    Sampling rate : 48.0 KHz
    Frame rate : 31.250 fps (1536 spf)
    Compression mode : Lossy
    Stream size : 163 MiB (6%)
    Default : Yes
    Forced : No
    Audio #2
    ID : 3
    Format : AC-3
    Format/Info : Audio Coding 3
    Mode extension : CM (complete main)
    Format settings, Endianness : Big
    Codec ID : A_AC3
    Duration : 59mn 19s
    Bit rate mode : Constant
    Bit rate : 384 Kbps
    Channel(s) : 2 channels
    Channel positions : Front: L R
    Sampling rate : 48.0 KHz
    Frame rate : 31.250 fps (1536 spf)
    Compression mode : Lossy
    Stream size : 163 MiB (6%)
    Default : No
    Forced : No


    Скриншоты для ознакомления




    Онлайн видео Последнее королевство


    Прямая ссылка скачивания через uTorrent


    Последнее королевство/The Last Kingdom (2015) WEB-DLRip [H.264/1080p-LQ] (сезон 1, серии 1 из 8) LostFilm (обновляемая)
    загрузка...
    Рейтинг →
     (голосов: 1, оценка 3/5, голосовать можно 1 раз )

    Другие торренты по теме:

  • Последнее королевство / The Last Kingdom (2015) WEB-DLRip (сезон 1, серии 1 из 8) NewStudio (обновляемая) скачать через торрент бесплатно
  • Последнее королевство / The Last Kingdom (2015) WEB-DLRip (сезон 1, серии 1 из 8) AlexFilm (обновляемая) скачать через торрент бесплатно
  • Последнее королевство / The Last Kingdom (2015) WEB-DL [H.264 / 720p-LQ] (сезон 1, серии 1-4 из 8) NewStudio (обновляемая) скачать через торрент бесплатно
  • Последнее королевство / The Last Kingdom (2015) WEB-DL [H.264 / 1080p-LQ] (сезон 1, серии 1-8 из 8) NewStudio
  • Последнее королевство / The Last Kingdom (2017) HDTV [H.264 / 1080p -LQ] (сезон 2, серии 1 из 8) LostFilm (обновляемая)
  • Последнее королевство / The Last Kingdom (2017) HDTVRip (сезон 2, серии 1 из 8) LostFilm (обновляемая)


    • Комментарии (0):

      Информация

      Информация

        Посетители, находящиеся в группе Гости, не могут оставлять комментарии в данной новости.

        ↓ Меню




        ↓ Опрос

        Вы добавили сайт в закладки?
        Да
        Нет


        Top 10 за месяц (Фильмы)