.
Авторизация | Регистрация
Хочешь лучшие торренты? Добавь свой email!
Добавить

Торрент скачать бесплатно

» » Сосны / Уэйворд Пайнс / Уэйуорд Пайнс / Wayward Pines (2016) WEB-DLRip (сезон 2, серии 1 из 10) LostFilm (обновляемая) торрент скачать бесплатно



    Сосны / Уэйворд Пайнс / Уэйуорд Пайнс / Wayward Pines (2016) WEB-DLRip (сезон 2, серии 1 из 10) LostFilm (обновляемая) торрент скачать бесплатно

    Опубликовал: Админ | Дата: 31-05-2016, 04:00 | Просмотров: 409

    Производство: США/Blinding Edge Pictures, De Line Pictures, Storyland
    Жанр: фантастика, триллер, драма, детектив
    Режиссер: Дэвид Петрарка

    Актеры
    Джейсон Патрик, Нимрат Каур, Джош Хилман, Том Стивенс, Кейси Рол, Хоуп Дэвис, Джимон Хонсу, Карла Гуджино, Чарли Тахэн, Терренс Ховард и др.

    Описание

    Власть в Уэйворд Пайнс захватило Первое поколение - люди, которые родились здесь. Они правят железной рукой, и такая ситуация не устраивает Бена, сына Итана Бёрка. Бен вместе со своими соратниками организовывает движение сопротивления. Вместо того, чтобы противостоять абберам, люди продолжают воевать друг с другом.

    Возраст: 18+ (зрителям, достигшим 18 лет)
    Продолжительность: ~00: 44: 00 серия
    Качество видео: WEB-DLRip
    Перевод: Многоголосый закадровый, профессиональный -LostFilm
    Реклама: присутствуют заставка и логотип LostFilm.
    Видео: XviD, 720x400 (16: 9), ~790 kb/s
    Аудио Rus: MPEG Layer 3, 48, 0 kHz, 2 ch, 192 kb/s — многоголосый закадровый
    Код:

    Общее
    Полное имя : D:Сосны (сезон любимого сериала 2) Wayward Pines (2016) WEB-DLRip - -LostFilmWayward.Pines.S02E01.rus.LostFilm.TV.avi
    Формат : AVI
    Формат/Информация : Audio Video Interleave
    Размер файла : 311 Мбайт
    Продолжительность : 43 м.
    Режим общего битрейта : Переменный
    Общий поток : 991 Кбит/сек
    Программа кодирования : Nandub v1.0rc2
    Библиотека кодирования : Nandub build 1853/release
    Видео
    Идентификатор : 0
    Формат : MPEG-4 Visual
    Профиль формата : Advanced Simple@L5
    Параметр BVOP формата : Нет
    Параметр QPel формата : Нет
    Параметр GMC формата : Без точки перехода
    Параметр матрицы формата : Default (H.263)
    Идентификатор кодека : XVID
    Идентификатор кодека/Подсказка : XviD
    Продолжительность : 43 м.
    Битрейт : 790 Кбит/сек
    Ширина : 720 пикселей
    Высота : 400 пикселей
    Соотношение сторон : 16:9
    Частота кадров : 23, 976 (23976/1000) кадра/сек
    Цветовое пространство : YUV
    Субдискретизация насыщенности : 4:2:0
    Битовая глубина : 8 бит
    Тип развёртки : Прогрессивная
    Метод сжатия : С потерями
    Бит/(Пиксели*Кадры) : 0.114
    Размер потока : 248 Мбайт (80%)
    Библиотека кодирования : XviD 1.2.1 (UTC 2008-12-04)
    Аудио
    Идентификатор : 1
    Формат : MPEG Audio
    Версия формата : Version 1
    Профиль формата : Layer 3
    Режим : Joint stereo
    Расширение режима : MS Stereo
    Идентификатор кодека : 55
    Идентификатор кодека/Подсказка : MP3
    Продолжительность : 43 м.
    Вид битрейта : Переменный
    Битрейт : 192 Кбит/сек
    Каналы : 2 канала
    Частота : 48, 0 КГц
    Метод сжатия : С потерями
    Размер потока : 59, 0 Мбайт (19%)
    Выравнивание : Соединение по промежуткам
    Продолжительность промежутка : 24 мс. (0, 58 видеокадр)
    Время предзагрузки промежутка : 477 мс.
    Библиотека кодирования : LAME3.97b
    Настройки программы : -m j -V 4 -q 3 -lowpass 18.6 --abr 192


    Скриншоты для ознакомления




    Онлайн видео Сосны


    Прямая ссылка скачивания через uTorrent


    Сосны/Уэйворд Пайнс/Уэйуорд Пайнс/Wayward Pines (2016) WEB-DLRip (сезон 2, серии 1 из 10) LostFilm (обновляемая)
    загрузка...
    Рейтинг →
     (голосов: 1, оценка 5/5, голосовать можно 1 раз )

    Другие торренты по теме:

  • Сосны / Уэйворд Пайнс / Уэйуорд Пайнс / Wayward Pines (2015) HDTVRip (сезон 1, серии 1 из 13) NewStudio (обновляемая) скачать через торрент бесплатно
  • Сосны / Уэйворд Пайнс / Уэйуорд Пайнс / Wayward Pines (2015) HDTVRip [H.264 / 720p-HQ] (Сезон 1, серии 1 из 13) (Кубик в Кубе) (обновляемая) скачать через торрент бесплатно
  • Сосны / Уэйворд Пайнс / Уэйуорд Пайнс / Wayward Pines (2015) HDTVRip [H.264 / 720p-LQ] (Сезон 1, серия 1 из 13) (NewStudio) (обновляемая) скачать через торрент бесплатно
  • Сосны / Уэйворд Пайнс / Уэйуорд Пайнс / Wayward Pines (2015) HDTVRip [H.264 / 720p-LQ] (Сезон 1, серия 1 из 13) (Fox) (обновляемая) скачать через торрент бесплатно
  • Сосны / Уэйворд Пайнс / Уэйуорд Пайнс / Wayward Pines (2015) WEB-DLRip (сезон 1, серии 1 из 13) LostFilm (обновляемая) скачать через торрент бесплатно
  • Сосны / Уэйворд Пайнс / Уэйуорд Пайнс / Wayward Pines (2015) WEBDL [H.264 / 1080p-LQ] (сезон 1, серии 1 из 13) (NewStudio) (обновляемая) скачать через торрент бесплатно
  • Сосны / Уэйворд Пайнс / Уэйуорд Пайнс / Wayward Pines (2015) WEB-DL [H.264 / 1080p-LQ] (сезон 1, серии 1 из 13) (LostFilm, NewStudio, AlexFilm, BaibaKo) (обновляемая) скачать через торрент бесплатно
  • Сосны / Уэйворд Пайнс / Уэйуорд Пайнс / Wayward Pines (2015) HDTVRip [H.264 / 1080p-LQ] (сезон 1, серии 1-2 из 13) (LostFilm) (обновляемая) скачать через торрент бесплатно


    • Комментарии (0):

      Информация

      Информация

        Посетители, находящиеся в группе Гости, не могут оставлять комментарии в данной новости.

        ↓ Меню




        ↓ Опрос

        Вы добавили сайт в закладки?
        Да
        Нет


        Top 10 за месяц (Фильмы)