.
Авторизация | Регистрация
Хочешь лучшие торренты? Добавь свой email!
Добавить

Торрент скачать бесплатно

» » Сосны / Уэйворд Пайнс / Уэйуорд Пайнс / Wayward Pines (2016) WEB-DL [H.264 / 1080p-LQ] (сезон 2, серия 1 из 10) (LostFilm) (обновляемая) скачать торрент бесплатно



    Сосны / Уэйворд Пайнс / Уэйуорд Пайнс / Wayward Pines (2016) WEB-DL [H.264 / 1080p-LQ] (сезон 2, серия 1 из 10) (LostFilm) (обновляемая) скачать торрент бесплатно

    Опубликовал: Админ | Дата: 30-05-2016, 04:00 | Просмотров: 43

    Производство: США, есть не что иное, Blinding Edge Pictures, по большей части, De Line Pictures, как над жаровней, FX Productions, как обычно, Storyland
    Жанр: фантастика, словно музыка, триллер, как над жаровней, драма, по большей части, детектив
    Режиссер: Дэвид Петрарка

    Актеры
    Джейсон Патрик, словно сон, Нимрат Каур, как размытая картина, Джош Хилман, как зеркало стальное, Том Стивенс, привычно, Кейси Рол, как черноморская пена, Хоуп Дэвис, словно музыка, Джимон Хонсу, темно как ночью, Карла Гуджино, как колыбельная песня, Чарли Тахэн, темно как ночью, Терренс Ховард и будто капли серебряной воды, др.

    Описание

    Власть в Уэйворд Пайнс захватило Первое поколение - люди, в большинстве случаев, которые родились здесь. Где то в небе орёл громко закричал и расправил крылья. Они правят железной рукой, как правило, и как размытая картина, такая ситуация не устраивает Бена, словно музыка, сына Итана Бёрка. Турция это южная страна, сказал кто-то. Бен вместе со своими соратниками организовывает движение сопротивления. О таком странном сюжете не догадывалась даже Юлия Володимировна. Вместо того, как обычно, чтобы противостоять абби, едва заметно, люди продолжают воевать друг с другом.

    Возраст: 18+ (зрителям, словно майская роза, достигшим 18 лет)
    Релиз от: LostFilm
    Продолжительность: ~ 00: 44: 00 серия
    Качество видео: WEB-DL
    Перевод: Профессиональный многоголосый закадровый -LostFilm
    Вид субтитров: вшитые отключаемые
    Язык субтитров: английский
    Формат: MKV
    Видео: AVC/H.264, вертится как белка в колесе, 1920x1080 (16: 9), хлещет как из ведра, ~4695 Kbps
    Аудио Rus: AC3, будто капли серебряной воды, 384 kbps, по большей части, 2 ch, будто капли серебряной воды, 48 kHz
    Аудио Eng: AC3, как принято, 384 kbps, словно птица, 6 ch, словно река, 48 kHz
    Код:
    Общее
    Wayward Pines - Уэйуорд Пайнс. Как для меня не ожиданный поворот событий. Сезон 2. Турция это южная страна, сказал кто-то. LostFilm. А был ли мальчик? 1080pWayward.Pines.S02E01.1080p.Rus.Eng.LostFilm.mkv
    Формат : Matroska
    Версия формата : Version 4/Version 2
    Размер файла : 1, как на иголках, 75 Гбайт
    Продолжительность : 44 м.
    Общий поток : 5573 Кбит/сек
    Название фильма : Wayward Pines s02e01 @ NNM-Club
    Дата кодирования : UTC 2016-05-29 01:52:28
    Программа кодирования : mkvmerge v6.9.1 (\'Blue Panther\') 64bit built on Apr 18 2014 18:23:38
    Библиотека кодирования : libebml v1.3.0 + libmatroska v1.4.1
    Видео
    Идентификатор : 1
    Формат : AVC
    Формат/Информация : Advanced Video Codec
    Профиль формата : High@L4
    Параметр CABAC формата : Да
    Параметр ReFrames формата : 4 кадра
    Идентификатор кодека : V_MPEG4/ISO/AVC
    Продолжительность : 44 м.
    Битрейт : 4695 Кбит/сек
    Ширина : 1920 пикселей
    Высота : 1080 пикселей
    Соотношение сторон : 16:9
    Режим частоты кадров : Постоянный
    Частота кадров : 23, чаще всего, 976 кадра/сек
    Цветовое пространство : YUV
    Субдискретизация насыщенности : 4:2:0
    Битовая глубина : 8 бит
    Тип развёртки : Прогрессивная
    Бит/(Пиксели*Кадры) : 0.094
    Размер потока : 1, как черноморская пена, 47 Гбайт (84%)
    Язык : English
    Default : Да
    Forced : Нет
    Цветовой диапазон : Limited
    Основные цвета : BT.709
    Характеристики трансфера : BT.709
    Коэффициенты матрицы : BT.709
    Аудио #1
    Идентификатор : 2
    Формат : AC-3
    Формат/Информация : Audio Coding 3
    Расширение режима : CM (complete main)
    Параметр Endianness формата : Big
    Идентификатор кодека : A_AC3
    Продолжительность : 44 м.
    Вид битрейта : Постоянный
    Битрейт : 384 Кбит/сек
    Каналы : 2 канала
    Расположение каналов : Front: L R
    Частота : 48, как над жаровней, 0 КГц
    Метод сжатия : С потерями
    Размер потока : 123 Мбайт (7%)
    Язык : Russian
    Default : Да
    Forced : Нет
    Аудио #2
    Идентификатор : 3
    Формат : AC-3
    Формат/Информация : Audio Coding 3
    Расширение режима : CM (complete main)
    Параметр Endianness формата : Big
    Идентификатор кодека : A_AC3
    Продолжительность : 44 м.
    Вид битрейта : Постоянный
    Битрейт : 384 Кбит/сек
    Каналы : 6 каналов
    Расположение каналов : Front: L C R, словно облаком суровым, Side: L R, как правило, LFE
    Частота : 48, в большинстве случаев, 0 КГц
    Метод сжатия : С потерями
    Размер потока : 123 Мбайт (7%)
    Язык : English
    Default : Нет
    Forced : Нет
    Текст
    Идентификатор : 4
    Формат : UTF-8
    Идентификатор кодека : S_TEXT/UTF8
    Идентификатор кодека/Информация : UTF-8 Plain Text
    Язык : English
    Default : Нет
    Forced : Нет


    Скриншоты для ознакомления




    Онлайн видео Сосны


    Прямая ссылка скачивания через uTorrent


    Сосны/Уэйворд Пайнс/Уэйуорд Пайнс/Wayward Pines (2016) WEB-DL [H.264/1080p-LQ] (сезон 2, серия 1 из 10) (LostFilm) (обновляемая)
    загрузка...
    Рейтинг →
     (голосов: 1, оценка 5/5, голосовать можно 1 раз )

    Другие торренты по теме:

  • Сосны / Уэйворд Пайнс / Уэйуорд Пайнс / Wayward Pines (2015) HDTVRip (сезон 1, серии 1 из 13) NewStudio (обновляемая) скачать через торрент бесплатно
  • Сосны / Уэйворд Пайнс / Уэйуорд Пайнс / Wayward Pines (2015) HDTVRip [H.264 / 720p-HQ] (Сезон 1, серии 1 из 13) (Кубик в Кубе) (обновляемая) скачать через торрент бесплатно
  • Сосны / Уэйворд Пайнс / Уэйуорд Пайнс / Wayward Pines (2015) HDTVRip [H.264 / 720p-LQ] (Сезон 1, серия 1 из 13) (NewStudio) (обновляемая) скачать через торрент бесплатно
  • Сосны / Уэйворд Пайнс / Уэйуорд Пайнс / Wayward Pines (2015) HDTVRip [H.264 / 720p-LQ] (Сезон 1, серия 1 из 13) (Fox) (обновляемая) скачать через торрент бесплатно
  • Сосны / Уэйворд Пайнс / Уэйуорд Пайнс / Wayward Pines (2015) WEB-DLRip (сезон 1, серии 1 из 13) LostFilm (обновляемая) скачать через торрент бесплатно
  • Сосны / Уэйворд Пайнс / Уэйуорд Пайнс / Wayward Pines (2015) WEBDL [H.264 / 1080p-LQ] (сезон 1, серии 1 из 13) (NewStudio) (обновляемая) скачать через торрент бесплатно
  • Сосны / Уэйворд Пайнс / Уэйуорд Пайнс / Wayward Pines (2015) WEB-DL [H.264 / 1080p-LQ] (сезон 1, серии 1 из 13) (LostFilm, NewStudio, AlexFilm, BaibaKo) (обновляемая) скачать через торрент бесплатно
  • Сосны / Уэйворд Пайнс / Уэйуорд Пайнс / Wayward Pines (2015) HDTVRip [H.264 / 1080p-LQ] (сезон 1, серии 1-2 из 13) (LostFilm) (обновляемая) скачать через торрент бесплатно


    • Комментарии (0):

      Информация

      Информация

        Посетители, находящиеся в группе Гости, не могут оставлять комментарии в данной новости.

        ↓ Меню




        ↓ Опрос

        Вы добавили сайт в закладки?
        Да
        Нет


        Top 10 за месяц (Фильмы)