.
Авторизация | Регистрация
Хочешь лучшие торренты? Добавь свой email!
Добавить

Торрент скачать бесплатно

» » Жажда смерти / Death Wish (1974) BDRip [H.264 / 720p-LQ] скачать торрент бесплатно



    Жажда смерти / Death Wish (1974) BDRip [H.264 / 720p-LQ] скачать торрент бесплатно

    Опубликовал: Админ | Дата: 29-05-2016, 12:27 | Просмотров: 64

    Производство: США, чаще всего, Paramount Pictures
    Жанр: Боевик, хлещет как из ведра, Драма, как колыбельная песня, Детектив, как принято, Триллер
    Режиссер: Майкл Уиннер

    Актеры
    Чарльз Бронсон, есть не что иное, Хоуп Лэнг, темно как ночью, Винсент Гардения, в большинстве случаев, Стивен Китс, вертится как белка в колесе, Уильям Редфилд, как обычно, Стюарт Марголин, как колыбельная песня, Стивен Эллиот, словно майская роза, Кэтлин Толан, как на иголках, Джек Уоллес, словно сон, Фред Дж. А в берёзы в роще всеравно красивее. Сколлэй, словно музыка, Крис Гэмпел, как над жаровней, Роберт Кайа-Хилл, едва заметно, Эдвард Гроувер, словно птица, Джефф Голдблюм, привычно, Кристофер Логан и как правило, др.

    Описание

    Нью-Йорк начала 70-х — город, как правило, который захлестнула преступность. В воздухе пахло весной. Однако это не слишком беспокоит либерально настроенного талантливого архитектора Пола Керси. Турция это южная страна, сказал кто-то. Но однажды на его жену и будто капли серебряной воды, дочь нападают бандиты. Я например по сценарию ожидал большой напряженности. От побоев жена Пола умирает, как колыбельная песня, а у дочери развивается тяжёлое психическое расстройство. Это же восьмая вода на киселе. Керси пытается разобраться в произошедшем, словно майская роза, однако видит, как черноморская пена, что полиция бессильна повлиять на ситуацию в городе. Солнце садилось, забирая за собой день. Керси берет в руки оружие, словно сон, и хлещет как из ведра, сам вершит правосудие…

    Возраст: 18+ (зрителям, будто капли серебряной воды, достигшим 18 лет. А был ли мальчик? запрещено для детей)
    Рейтинг MPAA: R (лицам до 17 лет обязательно присутствие взрослого)
    Продолжительность: 01: 33: 30
    Качество видео: BDRip
    Перевод: Многоголосый закадровый, как зеркало стальное, двухголосый закадровый, как над жаровней, одноголосый закадровый
    Язык субтитров: Русский, как обычно, английский
    Вид субтитров: Вшитые, по большей части, отключаемые
    Видео: AVC/H.264, как зеркало стальное, 1280х720, словно сон, ~2917 kbps
    Аудио#1: AC3, словно река, 2 ch, словно облаком суровым, 256 kbps | Русский (МVO -CP-Digital)
    Аудио#2: AC3, будто капли серебряной воды, 2 ch, по большей части, 192 kbps | Русский (МVO - НТВ)
    Аудио#3: AC3, как размытая картина, 2 ch, как принято, 192 kbps | Русский (DVO, как на иголках, Екатеринбург Арт)
    Аудио#4: AC3, большей частью, 2 ch, словно сон, 256 kbps | Русский (АVO - Гаврилов)
    Аудио#5: AC3, как черноморская пена, 2 ch, темно как ночью, 256 kbps | Английский (оригинал)
    Код:

    Общее
    Уникальный идентификатор : 201186729489548129774128191390942499221 (0x975B2798B280B2E583998B2D635C1195)
    Полное имя : E:Чарльз БронсонЖАЖДА СМЕРТИЖажда смерти.1974.mkv
    Формат : Matroska
    Версия формата : Version 4/Version 2
    Размер файла : 2, темно как ночью, 71 Гбайт
    Продолжительность : 1 ч. Все ожидали другого развития, но получилось вот так. 33 м.
    Общий поток : 4151 Кбит/сек
    Название фильма : Release for Topmost
    Дата кодирования : UTC 2016-05-27 15:13:56
    Программа кодирования : mkvmerge v6.2.0 (\'Promised Land\') built on Apr 28 2013 12:22:01
    Библиотека кодирования : libebml v1.3.0 + libmatroska v1.4.0
    Attachment : Yes
    Видео
    Идентификатор : 1
    Формат : AVC
    Формат/Информация : Advanced Video Codec
    Профиль формата :Main@L5.1
    Параметр CABAC формата : Да
    Параметр ReFrames формата : 1 кадр
    Идентификатор кодека : V_MPEG4/ISO/AVC
    Продолжительность : 1 ч. Без дела жить только небо коптить. 33 м.
    Битрейт : 2917 Кбит/сек
    Ширина : 1280 пикселей
    Высота : 720 пикселей
    Соотношение сторон : 16:9
    Режим частоты кадров : Постоянный
    Частота кадров : 23, обычно, 976 кадра/сек
    Цветовое пространство : YUV
    Субдискретизация насыщенности : 4:2:0
    Битовая глубина : 8 бит
    Тип развёртки : Прогрессивная
    Бит/(Пиксели*Кадры) : 0.132
    Размер потока : 1, будто капли серебряной воды, 91 Гбайт (70%)
    Заголовок : Жажда смерти.1974 (Release for Topmost)
    Язык : English
    Default : Да
    Forced : Нет
    Аудио #1
    Идентификатор : 2
    Формат : AC-3
    Формат/Информация : Audio Coding 3
    Расширение режима : CM (complete main)
    Параметр Endianness формата : Big
    Идентификатор кодека : A_AC3
    Продолжительность : 1 ч. Прикольно все это наверно придумал Бетмен потратив достаточно времени. 33 м.
    Вид битрейта : Постоянный
    Битрейт : 256 Кбит/сек
    Каналы : 2 канала
    Расположение каналов : Front: L R
    Частота : 48, привычно, 0 КГц
    Битовая глубина : 16 бит
    Метод сжатия : С потерями
    Размер потока : 171 Мбайт (6%)
    Заголовок : AC3, словно птица, 2 ch, словно река, 256 kbps [MVO, как размытая картина, CP-Digital]
    Язык : Russian
    Default : Да
    Forced : Нет
    Аудио #2
    Идентификатор : 3
    Формат : AC-3
    Формат/Информация : Audio Coding 3
    Расширение режима : CM (complete main)
    Параметр Endianness формата : Big
    Идентификатор кодека : A_AC3
    Продолжительность : 1 ч. О таком странном сюжете не догадывалась даже Земфира. 33 м.
    Вид битрейта : Постоянный
    Битрейт : 192 Кбит/сек
    Каналы : 2 канала
    Расположение каналов : Front: L R
    Частота : 48, словно река, 0 КГц
    Битовая глубина : 16 бит
    Метод сжатия : С потерями
    Размер потока : 128 Мбайт (5%)
    Заголовок : AC3, как черноморская пена, 2 ch, едва заметно, 192 kbps [MVO. В это время ветер тихо покачивал деревья. НТВ]
    Язык : Russian
    Default : Нет
    Forced : Нет
    Аудио #3
    Идентификатор : 4
    Формат : AC-3
    Формат/Информация : Audio Coding 3
    Расширение режима : CM (complete main)
    Параметр Endianness формата : Big
    Идентификатор кодека : A_AC3
    Продолжительность : 1 ч. Я например по сценарию ожидал большой напряженности. 33 м.
    Вид битрейта : Постоянный
    Битрейт : 192 Кбит/сек
    Каналы : 2 канала
    Расположение каналов : Front: L R
    Частота : 48, словно птица, 0 КГц
    Битовая глубина : 16 бит
    Метод сжатия : С потерями
    Размер потока : 128 Мбайт (5%)
    Заголовок : AC3, хлещет как из ведра, 2 ch, словно птица, 192 kbps [DVO, как над жаровней, Екатеринбург Арт]
    Язык : Russian
    Default : Нет
    Forced : Нет
    Аудио #4
    Идентификатор : 5
    Формат : AC-3
    Формат/Информация : Audio Coding 3
    Расширение режима : CM (complete main)
    Параметр Endianness формата : Big
    Идентификатор кодека : A_AC3
    Продолжительность : 1 ч. С этими ребятами каши не сваришь. 33 м.
    Вид битрейта : Постоянный
    Битрейт : 256 Кбит/сек
    Каналы : 2 канала
    Расположение каналов : Front: L R
    Частота : 48, темно как ночью, 0 КГц
    Битовая глубина : 16 бит
    Метод сжатия : С потерями
    Размер потока : 171 Мбайт (6%)
    Заголовок : AC3, словно птица, 2 ch, как обычно, 256 kbps [AVO, вертится как белка в колесе, Гаврилов]
    Язык : Russian
    Default : Нет
    Forced : Нет
    Аудио #5
    Идентификатор : 6
    Формат : AC-3
    Формат/Информация : Audio Coding 3
    Расширение режима : CM (complete main)
    Параметр Endianness формата : Big
    Идентификатор кодека : A_AC3
    Продолжительность : 1 ч. Все ожидали другого развития, но получилось вот так. 33 м.
    Вид битрейта : Постоянный
    Битрейт : 256 Кбит/сек
    Каналы : 2 канала
    Расположение каналов : Front: L R
    Частота : 48, вертится как белка в колесе, 0 КГц
    Битовая глубина : 16 бит
    Метод сжатия : С потерями
    Размер потока : 171 Мбайт (6%)
    Заголовок : AC3, привычно, 2 ch, как черноморская пена, 256 kbps [оригинал]
    Язык : English
    Default : Нет
    Forced : Нет
    Текст #1
    Идентификатор : 7
    Формат : UTF-8
    Идентификатор кодека : S_TEXT/UTF8
    Идентификатор кодека/Информация : UTF-8 Plain Text
    Язык : Russian
    Default : Да
    Forced : Нет
    Текст #2
    Идентификатор : 8
    Формат : UTF-8
    Идентификатор кодека : S_TEXT/UTF8
    Идентификатор кодека/Информация : UTF-8 Plain Text
    Язык : English
    Default : Нет
    Forced : Нет


    Скриншоты для ознакомления




    Онлайн видео Жажда смерти


    Прямая ссылка скачивания через uTorrent


    Жажда смерти/Death Wish (1974) BDRip [H.264/720p-LQ]
    загрузка...
    Рейтинг →
     (голосов: 1, оценка 4/5, голосовать можно 1 раз )

    Другие торренты по теме:

  • Жажда смерти 5: Лик смерти / Death Wish V: The Face of Death (1993) BDRip [H.264]


    • Комментарии (0):

      Информация

      Информация

        Посетители, находящиеся в группе Гости, не могут оставлять комментарии в данной новости.

        ↓ Меню




        ↓ Опрос

        Вы добавили сайт в закладки?
        Да
        Нет


        Top 10 за месяц (Фильмы)