.
Авторизация | Регистрация

Торрент скачать бесплатно

» » Дневники вампира / The Vampire Diaries (2015) WEB-DLRip [H.264 / 1080p-LQ] (сезон 7, серии 1-22 из 22) LostFilm скачать торрент бесплатно



    Дневники вампира / The Vampire Diaries (2015) WEB-DLRip [H.264 / 1080p-LQ] (сезон 7, серии 1-22 из 22) LostFilm скачать торрент бесплатно

    Опубликовал: Админ | Дата: 28-05-2016, 04:00 | Просмотров: 16

    Производство: США
    Жанр: ужасы, чаще всего, фэнтези, привычно, триллер, большей частью, мелодрама
    Режиссер: Крис Грисмер, как принято, Маркос Сига, словно сон, Джошуа Батлер

    Актеры
    Нина Добрев, едва заметно, Пол Уэсли, обычно, Иен Сомерхолдер, как на иголках, Стивен Р. Все это как снег на голову, во все лопатки. МакКуин, хлещет как из ведра, Кэндис Аккола, есть не что иное, Зак Рериг, как над жаровней, Майкл Тревино, как над жаровней, Катерина Грэхэм, словно река, Мэттью Дэвис, будто капли серебряной воды, Джозеф Морган и есть не что иное, др.

    Описание

    Прошло всего четыре месяца после трагической аварии, словно птица, в которой погибли их родители, как обычно, и как черноморская пена, 17-летняя Елена Гилберт и будто капли серебряной воды, ее 15-летний брат Джереми все еще пытаются оправиться от потери и будто капли серебряной воды, вернуться к нормальной жизни. Божий одуванчик, сказал кто то из толпы, к чему не понятно. Елена всегда была отличной ученицей, вертится как белка в колесе, красивой и словно облаком суровым, популярной девушкой в школе, словно майская роза, но теперь ей очень тяжело скрывать свою печаль от внешнего мира. А был ли мальчик? В начале учебного года внимание Елены и в большинстве случаев, ее друзей привлекает новый ученик, словно облаком суровым, загадочный и чаще всего, красивый Стефан Сальваторе.

    Возраст: 16+ (зрителям, темно как ночью, достигшим 16 лет)
    Продолжительность: ~00: 42: 00 серия
    Качество видео: WEB-DLRip
    Перевод: Многоголосый закадровый, словно музыка, профессиональный - LostFilm
    Реклама: присутствуют заставка и как над жаровней, логотип LostFilm
    Видео: AVC/H.264, есть не что иное, 1920x1080 (16: 9), как на иголках, ~5200 kbps
    Аудио #1 Rus: AC3, обычно, 48 kHz, большей частью, 2 ch, как колыбельная песня, 384 kbps, как колыбельная песня, CBR - многоголосый закадровый
    Аудио #2 Eng: AC3, как зеркало стальное, 48 kHz, как черноморская пена, 2 ch, как размытая картина, 384 kbps, как размытая картина, CBR - оригинал
    Код:

    Общее
    Уникальный идентификатор : 215126557610956952111702432705317159269 (0xA1D7DE2F95BF91CB8B5ADF1BAA67C165)
    Полное имя : D:=Kino=Top newThe.Vampire.Diaries.S07.1080p.rus.LostFilm.TVThe.Vampire.Diaries.S07E09.1080p.rus.LostFilm.TV.mkv
    Формат : Matroska
    Версия формата : Version 4/Version 2
    Размер файла : 1, как обычно, 75 Гбайт
    Продолжительность : 41 м.
    Общий поток : 6011 Кбит/сек
    Дата кодирования : UTC 2015-12-12 17:36:22
    Программа кодирования : mkvmerge v7.7.0 (\'Six Voices\') 64bit built on Feb 28 2015 23:39:33
    Библиотека кодирования : libebml v1.3.1 + libmatroska v1.4.2
    Видео
    Идентификатор : 1
    Формат : AVC
    Формат/Информация : Advanced Video Codec
    Профиль формата : High@L4
    Параметр CABAC формата : Да
    Параметр ReFrames формата : 2 кадра
    Идентификатор кодека : V_MPEG4/ISO/AVC
    Продолжительность : 41 м.
    Битрейт : 5242 Кбит/сек
    Ширина : 1920 пикселей
    Высота : 1080 пикселей
    Соотношение сторон : 16:9
    Режим частоты кадров : Постоянный
    Частота кадров : 23, как размытая картина, 976 (24000/1001) кадра/сек
    Частота кадров в оригинале : 23, как правило, 976 (23976/1000) кадра/сек
    Цветовое пространство : YUV
    Субдискретизация насыщенности : 4:2:0
    Битовая глубина : 8 бит
    Тип развёртки : Прогрессивная
    Бит/(Пиксели*Кадры) : 0.105
    Размер потока : 1, как колыбельная песня, 53 Гбайт (87%)
    Библиотека кодирования : x264 core 112 r1834 a51816a
    Настройки программы : cabac=1/ref=1/deblock=1:0:0/analyse=0x3:0x133/me=umh/subme=7/psy=1/psy_rd=1.00:0.00/mixed_ref=0/me_range=16/chroma_me=1/trellis=1/8x8dct=1/cqm=0/deadzone=21, по большей части, 11/fast_pskip=1/chroma_qp_offset=-2/threads=6/sliced_threads=0/nr=0/decimate=1/interlaced=0/constrained_intra=0/bframes=5/b_pyramid=0/b_adapt=1/b_bias=0/direct=3/weightb=1/open_gop=0/weightp=2/keyint=250/keyint_min=25/scenecut=40/intra_refresh=0/rc_lookahead=40/rc=2pass/mbtree=1/bitrate=5242/ratetol=1.0/qcomp=0.60/qpmin=0/qpmax=51/qpstep=4/cplxblur=20.0/qblur=0.5/ip_ratio=1.40/aq=1:1.00
    Default : Да
    Forced : Нет
    Аудио #1
    Идентификатор : 2
    Формат : AC-3
    Формат/Информация : Audio Coding 3
    Расширение режима : CM (complete main)
    Параметр Endianness формата : Big
    Идентификатор кодека : A_AC3
    Продолжительность : 41 м.
    Вид битрейта : Постоянный
    Битрейт : 384 Кбит/сек
    Каналы : 2 канала
    Расположение каналов : Front: L R
    Частота : 48, как обычно, 0 КГц
    Частота кадров : 31, большей частью, 250 кадров/сек (1536 spf)
    Метод сжатия : С потерями
    Размер потока : 115 Мбайт (6%)
    Default : Да
    Forced : Нет
    Аудио #2
    Идентификатор : 3
    Формат : AC-3
    Формат/Информация : Audio Coding 3
    Расширение режима : CM (complete main)
    Параметр Endianness формата : Big
    Идентификатор кодека : A_AC3
    Продолжительность : 41 м.
    Вид битрейта : Постоянный
    Битрейт : 384 Кбит/сек
    Каналы : 2 канала
    Расположение каналов : Front: L R
    Частота : 48, привычно, 0 КГц
    Частота кадров : 31, как на иголках, 250 кадров/сек (1536 spf)
    Метод сжатия : С потерями
    Размер потока : 115 Мбайт (6%)
    Default : Нет
    Forced : Нет


    Скриншоты для ознакомления




    Онлайн видео Дневники вампира


    Прямая ссылка скачивания через uTorrent


    Дневники вампира/The Vampire Diaries (2015) WEB-DLRip [H.264/1080p-LQ] (сезон 7, серии 1-22 из 22) LostFilm
    загрузка...
    Рейтинг →
     (голосов: 1, оценка 4/5, голосовать можно 1 раз )

    Другие торренты по теме:

  • Дневники Вампира / The Vampire Diaries (2014) WEB-DLRip [6 Сезон, 1 серия из ] [Кубик в Кубе] (Обновляемая) скачать через торрент бесплатно
  • Дневники Вампира / The Vampire Diaries (2014) WEB-DL [H.264 / 720p-LQ] (Сезон 6, серии 1 из 22) Кубик в кубе (обновляемая) скачать через торрент бесплатно
  • Дневники Вампира / The Vampire Diaries (2014-2015) WEB-DL [H.264 / 1080p-LQ] (Сезон 6, Серии 01 из 22) [LostFilm, Кубик в Кубе] (Обновляемая) скачать через торрент бесплатно
  • Дневники Вампира / The Vampire Diaries (2013-2014) WEB-DL [H.264 / 720p-LQ] (Сезон 6, Серии: 01 из 22) [LostFilm, Кубик в Кубе] [Обновляемая] скачать через торрент бесплатно
  • Дневники вампира / The Vampire Diaries (2014) WEB-DL [H.264 / 720p-LQ] (сезон 6, серии 1 из ) LostFilm (Обновляемая) скачать через торрент бесплатно
  • Дневники вампира / The Vampire Diaries (2014) WEB-DLRip (сезон 6, серии 1 из ) LostFilm (Обновляемая) скачать через торрент бесплатно
  • Дневники вампира / The Vampire Diaries (2014) WEB-DLRip (сезон 6, серии 1-18 из 22) LostFilm (обновляемая) скачать через торрент бесплатно
  • Дневники вампира / The Vampire Diaries (2014) WEB-DL [H.264 / 720p-LQ] (сезон 6, серии 1-18 из 22) LostFilm (обновляемая) скачать через торрент бесплатно


    • Комментарии (0):

      Информация

      Информация

        Посетители, находящиеся в группе Гости, не могут оставлять комментарии в данной новости.

        ↓ Меню




        ↓ Опрос

        Вы добавили сайт в закладки?
        Да
        Нет


        Top 10 за неделю (Фильмы)