.
Авторизация | Регистрация

Торрент скачать бесплатно

» » Сверхъестественное / Supernatural (2015) HDTVRip (сезон 11, серии 1-23 из 23) [EN / RU, EN Sub] скачать торрент бесплатно



    Сверхъестественное / Supernatural (2015) HDTVRip (сезон 11, серии 1-23 из 23) [EN / RU, EN Sub] скачать торрент бесплатно

    Опубликовал: Админ | Дата: 28-05-2016, 04:00 | Просмотров: 20

    Производство: США
    Жанр: ужасы, есть не что иное, фэнтези, чаще всего, триллер, хлещет как из ведра, драма
    Режиссер: Эрик Крипке

    Актеры
    Джаред Падалеки, как размытая картина, Дженсен Эклс, словно музыка, Джим Бивер, обычно, Миша Коллинз, как обычно, Марк Шеппард, темно как ночью, Марк Пеллегрино, словно птица, Женевьев Падалеки, как колыбельная песня, Кэти Кэссиди, привычно, Джеймс Патрик Стюарт, как над жаровней, Саманта Феррис и как зеркало стальное, др.

    Описание

    Сериал рассказывает о приключениях братьев Сэма и словно облаком суровым, Дина Винчестеров, есть не что иное, которые путешествуют по Соединённым Штатам на чёрном автомобиле Chevrolet Impala 1967 года, словно река, расследуют паранормальные явления, словно облаком суровым, многие из которых основаны на американских городских легендах и большей частью, фольклоре, словно майская роза, и как обычно, сражаются с порождениями зла, чаще всего, такими как демоны и как колыбельная песня, призраки.

    Продолжительность: ~00: 42: 00 серия
    Качество видео: HDTVRip
    Перевод: отсутствует
    Язык озвучки: английский
    Вид субтитров: отдельным файлом
    Язык субтитров: русский, вертится как белка в колесе, английский
    Видео: Xvid, как правило, 720x400 (16: 9), как принято, ~1190 Kbps
    Аудио: MP3, едва заметно, 2 ch, обычно, 192 Kbps, как правило, CBR
    Код:

    General
    Complete name : D:SupernaturalSupernatural 11 ENGSupernatural.S11E01.avi
    Format : AVI
    Format/Info : Audio Video Interleave
    File size : 422 MiB
    Duration : 42mn 25s
    Overall bit rate : 1 391 Kbps
    Video
    ID : 0
    Format : MPEG-4 Visual
    Format profile : Advanced Simple@L5
    Format settings, темно как ночью, BVOP : 2
    Format settings, как обычно, QPel : No
    Format settings, большей частью, GMC : No warppoints
    Format settings, будто капли серебряной воды, Matrix : Default (MPEG)
    Codec ID : XVID
    Codec ID/Hint : XviD
    Duration : 42mn 25s
    Bit rate : 1 190 Kbps
    Width : 720 pixels
    Height : 400 pixels
    Display aspect ratio : 16:9
    Frame rate : 23.976 fps
    Color space : YUV
    Chroma subsampling : 4:2:0
    Bit depth : 8 bits
    Scan type : Progressive
    Compression mode : Lossy
    Bits/(Pixel*Frame) : 0.172
    Stream size : 361 MiB (86%)
    Writing library : XviD 73
    Audio
    ID : 1
    Format : MPEG Audio
    Format version : Version 1
    Format profile : Layer 3
    Mode : Joint stereo
    Mode extension : MS Stereo
    Codec ID : 55
    Codec ID/Hint : MP3
    Duration : 42mn 25s
    Bit rate mode : Constant
    Bit rate : 192 Kbps
    Channel(s) : 2 channels
    Sampling rate : 48.0 KHz
    Compression mode : Lossy
    Stream size : 58.3 MiB (14%)
    Alignment : Aligned on interleaves
    Interleave, будто капли серебряной воды, duration : 42 ms (1.00 video frame)
    Interleave, едва заметно, preload duratio : 504 ms
    Writing library : LAME3.98.2


    Скриншоты для ознакомления




    Онлайн видео Сверхъестественное


    Прямая ссылка скачивания через uTorrent


    Сверхъестественное/Supernatural (2015) HDTVRip (сезон 11, серии 1-23 из 23) [EN/RU, EN Sub]
    загрузка...
    Рейтинг →
     (голосов: 1, оценка 5/5, голосовать можно 1 раз )

    Другие торренты по теме:

  • Сверхъестественное / Supernatural (2014) WEB-DLRip [720p] (сезон 10, серии 1 из ) LostFilm (oбновляемая) торрент скачать бесплатно
  • Сверхъестественное / Supernatural (2014-2015) WEB-DLRip [H.264 / 1080p-LQ] (Сезон 10, серии 1 из 23) LostFilm (oбновляемая) скачать через торрент бесплатно
  • Сверхъестественное / Supernatural (2014) WEB-DLRip (сезон 10, серии 1 из ) NewStudio + NovaFiLM (oбновляемая) скачать через торрент бесплатно
  • Сверхъестественное / Supernatural (2014-2015) WEB-DL [H.264 / 1080p-LQ] (Сезон 10, серии 1 из 23) LostFilm (Обновляемая) торрент скачать бесплатно
  • Сверхъестественное / Supernatural (2014) HDTVRip (Сезон 10, 1-2 серия из 23) [DreamRecords] (Обновляемая) торрент скачать бесплатно
  • Сверхъестественное / Supernatural (2014) WEB-DLRip (сезон 10, серии 1-2 из ) BaibaKo (oбновляемая) скачать через торрент бесплатно
  • Сверхъестественное / Supernatural (2014-2015) HDTVRip (Сезон 10, серии 0-2 из 23) [EN EN, RU Sub] (Обновляемая) скачать через торрент бесплатно
  • Сверхъестественное / Supernatural (2014) WEB-DLRip (сезон 10, серии 1-2 из ) LostFilm (oбновляемая) скачать через торрент бесплатно


    • Комментарии (0):

      Информация

      Информация

        Посетители, находящиеся в группе Гости, не могут оставлять комментарии в данной новости.

        ↓ Меню




        ↓ Опрос

        Вы добавили сайт в закладки?
        Да
        Нет


        Top 10 за неделю (Фильмы)

        Мой парень – киллер / Mr. Right (2015) WEB-DL [H.264 / 1080p-LQ] скачать торрент бесплатно

        (просмотров: 1601)
        Мой парень – киллер / Mr. Right (2015) BDRip [H.264] скачать торрент бесплатно

        (просмотров: 1581)
        Разрушение / Demolition (2015) HDRip скачать торрент бесплатно

        (просмотров: 1581)
        Дивергент, глава 3: За стеной / The Divergent Series: Allegiant (2016) DVDScr [Line] скачать торрент бесплатно

        (просмотров: 1551)
        Дивергент, глава 3: За стеной / The Divergent Series: Allegiant (2016) CAMRip скачать торрент бесплатно

        (просмотров: 1531)
        Обратная сторона Луны (2016) WEBRip [H.264 / 720p-LQ] (cезон 2, серии 1-16 из 16) скачать торрент бесплатно

        (просмотров: 1521)
        Иллюзия обмана 2 / Now You See Me 2 (2016) BDRemux [H.264 / 1080p] скачать торрент бесплатно

        (просмотров: 1521)
        Равные / Equals (2015) BDRemux [H.264 / 1080p] [US Transfer] скачать торрент бесплатно

        (просмотров: 1521)
        Иллюзия обмана 2 / Now You See Me 2 (2016) BDRemux [H.264 / 1080p] [US Transfer] скачать торрент бесплатно

        (просмотров: 1521)
        Иллюзия обмана 2 / Now You See Me 2 (2016) CamRip скачать торрент бесплатно

        (просмотров: 1511)