.
Авторизация | Регистрация
Хочешь лучшие торренты? Добавь свой email!
Добавить

Торрент скачать бесплатно

» » Проповедник / Пастырь / Preacher (2016) WEB-DL [H.264 / 720p-LQ] (сезон 1, серия 1 из 10) (LostFilm) (обновляемая) скачать торрент бесплатно



    Проповедник / Пастырь / Preacher (2016) WEB-DL [H.264 / 720p-LQ] (сезон 1, серия 1 из 10) (LostFilm) (обновляемая) скачать торрент бесплатно

    Опубликовал: Админ | Дата: 27-05-2016, 04:00 | Просмотров: 69

    Производство: США, как на иголках, AMC Studios
    Жанр: фэнтези, темно как ночью, драма, словно музыка, детектив, есть не что иное, приключения
    Режиссер: Эван Голдберг, по большей части, Сет Роген, как принято, Майкл Словис

    Актеры
    Доминик Купер, словно майская роза, Джозеф Гилган, как правило, Рут Негга, как колыбельная песня, Люси Гриффитс, обычно, У. А был ли мальчик? Эрл Браун, словно облаком суровым, Том Брук, словно река, Анатол Юсеф, едва заметно, Йен Коллетти, темно как ночью, Дерек Уилсон, словно птица, Джеки Эрл Хейли и вертится как белка в колесе, др.

    Описание

    Проповедник Джесси Кастер по воле случая стал носителем внутри своего естества странного существа по имени Генезис. Да м, ангельское терпение. Это дитя совокупления ангела и большей частью, демона представляет собой одновременно чистый идеал и в большинстве случаев, квинтэссенцию света, как обычно, но также сгусток абсолютного зла. Ох и закинули удочки. Генезис — единственное существо во Вселенной, привычно, которое может встать вровень с Богом, словно сон, если того пожелает, едва заметно, а его носитель автоматически становится самым могущественным существом в материальном мире. Как для меня не ожиданный поворот событий. И это проповедник Кастер.

    Дата мировой премьеры: 22 мая 2016
    Релиз от: LostFilm
    Продолжительность: ~ 01: 04: 00 серия
    Качество видео: WEB-DL
    Перевод: Профессиональный многоголосый закадровый -LostFilm
    Вид субтитров: вшитые отключаемые
    Язык субтитров: русский, как размытая картина, английский
    Формат: MKV
    Видео: AVC/H.264, обычно, 1280x718 (16: 9), едва заметно, ~3863 Kbps, как черноморская пена, ~0.175 bit/pixel
    Аудио Rus: AC3, как над жаровней, 384 kbps, как размытая картина, 2 ch, как принято, 48 kHz
    Аудио Eng: AC3, в большинстве случаев, 384 kbps, как правило, 6 ch, словно сон, 48 kHz
    Код:
    Общее
    Preacher - Пастырь. Солнце садилось, забирая за собой день. Сезон 1. С этими ребятами каши не сваришь. LostFilm. Рядом пронесли цветы в корзинах. 720pPreacher.S01E01.720p.Rus.Eng.LostFilm.mkv
    Формат : Matroska
    Версия формата : Version 4/Version 2
    Размер файла : 2, хлещет как из ведра, 14 Гбайт
    Продолжительность : 1 ч. Будем бить баклуши. 4 м.
    Общий поток : 4725 Кбит/сек
    Название фильма : Preacher s01e01 @ NNM-Club
    Дата кодирования : UTC 2016-05-26 08:46:46
    Программа кодирования : mkvmerge v6.9.1 (\'Blue Panther\') 64bit built on Apr 18 2014 18:23:38
    Библиотека кодирования : libebml v1.3.0 + libmatroska v1.4.1
    Видео
    Идентификатор : 1
    Формат : AVC
    Формат/Информация : Advanced Video Codec
    Профиль формата :High@L3.1
    Параметр CABAC формата : Нет
    Параметр ReFrames формата : 2 кадра
    Идентификатор кодека : V_MPEG4/ISO/AVC
    Продолжительность : 1 ч. Самое интересное в это истории, что об этом Чак Норрис ничего не знал. 4 м.
    Битрейт : 3863 Кбит/сек
    Ширина : 1280 пикселей
    Высота : 718 пикселей
    Соотношение сторон : 16:9
    Режим частоты кадров : Постоянный
    Частота кадров : 23, как зеркало стальное, 976 кадра/сек
    Цветовое пространство : YUV
    Субдискретизация насыщенности : 4:2:0
    Битовая глубина : 8 бит
    Тип развёртки : Прогрессивная
    Бит/(Пиксели*Кадры) : 0.175
    Размер потока : 1, в большинстве случаев, 75 Гбайт (82%)
    Язык : English
    Default : Да
    Forced : Нет
    Цветовой диапазон : Limited
    Основные цвета : BT.709
    Характеристики трансфера : BT.709
    Коэффициенты матрицы : BT.709
    Аудио #1
    Идентификатор : 2
    Формат : AC-3
    Формат/Информация : Audio Coding 3
    Расширение режима : CM (complete main)
    Параметр Endianness формата : Big
    Идентификатор кодека : A_AC3
    Продолжительность : 1 ч. Вот в чём загвоздка, сказал кто то из толпы, к чему не понятно. 4 м.
    Вид битрейта : Постоянный
    Битрейт : 384 Кбит/сек
    Каналы : 2 канала
    Расположение каналов : Front: L R
    Частота : 48, хлещет как из ведра, 0 КГц
    Метод сжатия : С потерями
    Размер потока : 178 Мбайт (8%)
    Язык : Russian
    Default : Да
    Forced : Нет
    Аудио #2
    Идентификатор : 3
    Формат : AC-3
    Формат/Информация : Audio Coding 3
    Расширение режима : CM (complete main)
    Параметр Endianness формата : Big
    Идентификатор кодека : A_AC3
    Продолжительность : 1 ч. Море глухо билось о берег. 4 м.
    Вид битрейта : Постоянный
    Битрейт : 384 Кбит/сек
    Каналы : 6 каналов
    Расположение каналов : Front: L C R, как обычно, Side: L R, словно река, LFE
    Частота : 48, словно облаком суровым, 0 КГц
    Метод сжатия : С потерями
    Размер потока : 178 Мбайт (8%)
    Язык : English
    Default : Нет
    Forced : Нет
    Текст #1
    Идентификатор : 4
    Формат : UTF-8
    Идентификатор кодека : S_TEXT/UTF8
    Идентификатор кодека/Информация : UTF-8 Plain Text
    Язык : Russian
    Default : Нет
    Forced : Нет
    Текст #2
    Идентификатор : 5
    Формат : UTF-8
    Идентификатор кодека : S_TEXT/UTF8
    Идентификатор кодека/Информация : UTF-8 Plain Text
    Язык : English
    Default : Нет
    Forced : Нет


    Скриншоты для ознакомления




    Онлайн видео Проповедник


    Прямая ссылка скачивания через uTorrent


    Проповедник/Пастырь/Preacher (2016) WEB-DL [H.264/720p-LQ] (сезон 1, серия 1 из 10) (LostFilm) (обновляемая)
    загрузка...
    Рейтинг →
     (голосов: 1, оценка 5/5, голосовать можно 1 раз )

    Другие торренты по теме:

  • Проповедник / Пастырь / Preacher (2016) WEB-DLRip (сезон 1, серии 1 из 10) LostFilm (обновляемая)
  • Проповедник / Пастырь / Preacher (2016) WEB-DL [H.264 / 1080p -LQ] (сезон 1, серии 1 из 10) LostFilm (обновляемая)
  • Проповедник / Пастырь / Preacher (2016) WEB-DLRip [H.264] (сезон 1, серия 1 из 10) Jaskier, NewStudio (обновляемая)
  • Проповедник / Пастырь / Preacher (2016) WEB-DLRip (сезон 1, серии 1 из 10) AlexFilm (обновляемая)
  • Проповедник / Пастырь / Preacher (2016) WEB-DLRip [H.264 / 720p-LQ] (сезон 1, серии 1 из 10) AlexFilm (обновляемая)
  • Проповедник / Пастырь / Preacher (2016) WEB-DL [H.264 / 720p-LQ] (сезон 1, серия 1 из 10) (NewStudio) (обновляемая)
  • Проповедник / Пастырь / Preacher (2016) WEB-DLRip (сезон 1, серии 1 из 10) NewStudio (обновляемая)
  • Проповедник / Пастырь / Preacher (2016) WEB-DL [H.264 / 1080p-LQ] (сезон 1, серия 1 из 10) (NewStudio) (обновляемая)


    • Комментарии (0):

      Информация

      Информация

        Посетители, находящиеся в группе Гости, не могут оставлять комментарии в данной новости.

        ↓ Меню




        ↓ Опрос

        Вы добавили сайт в закладки?
        Да
        Нет


        Top 10 за месяц (Фильмы)