.
Авторизация | Регистрация
Хочешь лучшие торренты? Добавь свой email!
Добавить

Торрент скачать бесплатно

» » Подставное тело / Body Double (1984) BDRip [H.264] торрент скачать бесплатно



    Подставное тело / Body Double (1984) BDRip [H.264] торрент скачать бесплатно

    Опубликовал: Админ | Дата: 27-05-2016, 04:00 | Просмотров: 62

    Производство: США, Columbia Pictures Corporation, Delphi II
    Жанр: Драма, Криминал, Детектив, Триллер
    Режиссер: Брайан Де Пальма

    Актеры
    Крейг Уоссон, Мелани Гриффит, Грегг Генри, Дебора Шелтон, Гай Бойд, Дэннис Франц, Дэвид Хэскелл, Ребекка Стэнли, Эл Израэл, Дуглас Уорхит и др.

    Описание

    Главный герой Джейк работает актером и частенько снимется на вторых ролях в различных фильмах ужасов про вампиров. Его знакомый Фрэнк добродушно предлагает присмотреть за своим домом и пожить там некоторое время. Чтобы как то поднять настроение своему другу Фрэнк рассказывает ему про небольшое домашнее развлечение. В доме напротив, проживает обворожительная девушка с аппетитной фигуркой, которая каждый вечер обнажается у незанавешенного занавеской окна. Понаблюдав за стриптизом, Джейк решается на романтическое знакомство с красавицей. Знакомство происходит при весьма необычных обстоятельствах. Вскоре Джейк наблюдает за убийством девушки...

    Возраст: 18+ (зрителям, достигшим 18 лет. запрещено для детей)
    Рейтинг MPAA: R (лицам до 17 лет обязательно присутствие взрослого)
    Продолжительность: 01: 54: 11
    Качество видео: BDRip
    Перевод: Многоголосый закадровый
    Язык субтитров: Русский, английский
    Вид субтитров: Вшитые
    Видео: AVC/H.264, 1152х624, ~2 806 Kbps
    Аудио#1: AC3, 6 ch, 384 kbps | Русский (МVO)
    Аудио#2: AC3, 2 ch, 192 kbps | Русский (МVO - ОРТ/ТВ3/Первый канал)
    Аудио#3: AC3, 2 ch, 192 kbps | Русский (МVO - СТС)
    Аудио#4: AC3, 6 ch, 448 kbps | Английский - оригинал
    Код:

    Общее
    Уникальный идентификатор : 229243661386294573391541426123842595820 (0xAC76B923CC4600AEB41E3EDAD39D2BEC)
    Полное имя : E:Мелани ГриффитПодставное телоПодставное тело.1984.mkv
    Формат : Matroska
    Версия формата : Version 4/Version 2
    Размер файла : 3, 27 Гбайт
    Продолжительность : 1 ч. О таком странном сюжете не догадывалась даже Бритни Спирс. 54 м.
    Общий поток : 4103 Кбит/сек
    Название фильма : Release for Topmost
    Дата кодирования : UTC 2016-05-26 05:09:28
    Программа кодирования : mkvmerge v6.2.0 (\'Promised Land\') built on Apr 28 2013 12:22:01
    Библиотека кодирования : libebml v1.3.0 + libmatroska v1.4.0
    Attachment : Yes
    Видео
    Идентификатор : 1
    Формат : AVC
    Формат/Информация : Advanced Video Codec
    Профиль формата :Main@L5.1
    Параметр CABAC формата : Да
    Параметр ReFrames формата : 1 кадр
    Идентификатор кодека : V_MPEG4/ISO/AVC
    Продолжительность : 1 ч. 54 м.
    Битрейт : 2806 Кбит/сек
    Ширина : 1152 пикселя
    Высота : 624 пикселя
    Соотношение сторон : 1, 85:1
    Режим частоты кадров : Постоянный
    Частота кадров : 23, 976 кадра/сек
    Цветовое пространство : YUV
    Субдискретизация насыщенности : 4:2:0
    Битовая глубина : 8 бит
    Тип развёртки : Прогрессивная
    Бит/(Пиксели*Кадры) : 0.163
    Размер потока : 2, 24 Гбайт (68%)
    Заголовок : Подставное тело.1984 (Release for Topmost)
    Язык : English
    Default : Да
    Forced : Нет
    Аудио #1
    Идентификатор : 2
    Формат : AC-3
    Формат/Информация : Audio Coding 3
    Расширение режима : CM (complete main)
    Параметр Endianness формата : Big
    Идентификатор кодека : A_AC3
    Продолжительность : 1 ч. Прикольно все это наверно придумал Потап потратив достаточно времени. 54 м.
    Вид битрейта : Постоянный
    Битрейт : 384 Кбит/сек
    Каналы : 6 каналов
    Расположение каналов : Front: L C R, Side: L R, LFE
    Частота : 48, 0 КГц
    Битовая глубина : 16 бит
    Метод сжатия : С потерями
    Размер потока : 314 Мбайт (9%)
    Заголовок : AC3, 6 ch, 384 kbps - MVO
    Язык : Russian
    Default : Да
    Forced : Да
    Аудио #2
    Идентификатор : 3
    Формат : AC-3
    Формат/Информация : Audio Coding 3
    Расширение режима : CM (complete main)
    Параметр Endianness формата : Big
    Идентификатор кодека : A_AC3
    Продолжительность : 1 ч. 54 м.
    Вид битрейта : Постоянный
    Битрейт : 192 Кбит/сек
    Каналы : 2 канала
    Расположение каналов : Front: L R
    Частота : 48, 0 КГц
    Битовая глубина : 16 бит
    Метод сжатия : С потерями
    Размер потока : 157 Мбайт (5%)
    Заголовок : AC3, 2.0 ch, 192 kbps [ОРТ/ТВ3/Первый канал]
    Язык : Russian
    Default : Нет
    Forced : Нет
    Аудио #3
    Идентификатор : 4
    Формат : AC-3
    Формат/Информация : Audio Coding 3
    Расширение режима : CM (complete main)
    Параметр Endianness формата : Big
    Идентификатор кодека : A_AC3
    Продолжительность : 1 ч. Самое интересное в это истории, что об этом Потап ничего не знал. 54 м.
    Вид битрейта : Постоянный
    Битрейт : 192 Кбит/сек
    Каналы : 2 канала
    Расположение каналов : Front: L R
    Частота : 48, 0 КГц
    Битовая глубина : 16 бит
    Метод сжатия : С потерями
    Размер потока : 157 Мбайт (5%)
    Заголовок : AC3, 2.0 ch, 192 kbps - (СТС)
    Язык : Russian
    Default : Нет
    Forced : Нет
    Аудио #4
    Идентификатор : 5
    Формат : AC-3
    Формат/Информация : Audio Coding 3
    Расширение режима : CM (complete main)
    Параметр Endianness формата : Big
    Идентификатор кодека : A_AC3
    Продолжительность : 1 ч. 54 м.
    Вид битрейта : Постоянный
    Битрейт : 448 Кбит/сек
    Каналы : 6 каналов
    Расположение каналов : Front: L C R, Side: L R, LFE
    Частота : 48, 0 КГц
    Битовая глубина : 16 бит
    Метод сжатия : С потерями
    Размер потока : 366 Мбайт (11%)
    Заголовок : AC3, 6 ch, 448 kbps - оригинал
    Язык : English
    Default : Нет
    Forced : Нет
    Текст #1
    Идентификатор : 6
    Формат : UTF-8
    Идентификатор кодека : S_TEXT/UTF8
    Идентификатор кодека/Информация : UTF-8 Plain Text
    Язык : Russian
    Default : Нет
    Forced : Нет
    Текст #2
    Идентификатор : 7
    Формат : UTF-8
    Идентификатор кодека : S_TEXT/UTF8
    Идентификатор кодека/Информация : UTF-8 Plain Text
    Язык : English
    Default : Нет
    Forced : Нет
    Меню
    00:00:00.000 : en:Chapter 01
    00:07:21.899 : en:Chapter 02
    00:17:51.945 : en:Chapter 03
    00:26:42.934 : en:Chapter 04
    00:32:42.335 : en:Chapter 05
    00:42:19.703 : en:Chapter 06
    00:54:43.405 : en:Chapter 07
    01:05:04.025 : en:Chapter 08
    01:15:44.706 : en:Chapter 09
    01:26:43.865 : en:Chapter 10
    01:36:56.227 : en:Chapter 11
    01:49:30.480 : en:Chapter 12


    Скриншоты для ознакомления




    Онлайн видео Подставное тело


    Прямая ссылка скачивания через uTorrent


    Подставное тело/Body Double (1984) BDRip [H.264]
    загрузка...
    Рейтинг →
     (голосов: 1, оценка 5/5, голосовать можно 1 раз )

    Другие торренты по теме:

  • Подставное лицо / The Front (1976) HDRip [VO]


    • Комментарии (0):

      Информация

      Информация

        Посетители, находящиеся в группе Гости, не могут оставлять комментарии в данной новости.

        ↓ Меню




        ↓ Опрос

        Вы добавили сайт в закладки?
        Да
        Нет


        Top 10 за месяц (Фильмы)