.
Авторизация | Регистрация
Хочешь лучшие торренты? Добавь свой email!
Добавить

Торрент скачать бесплатно

» » Подставное тело / Body Double (1984) BDRip [H.264] скачать торрент бесплатно



    Подставное тело / Body Double (1984) BDRip [H.264] скачать торрент бесплатно

    Опубликовал: Админ | Дата: 27-05-2016, 04:00 | Просмотров: 62

    Производство: США, как обычно, Columbia Pictures Corporation, как правило, Delphi II
    Жанр: Драма, словно река, Криминал, словно майская роза, Детектив, едва заметно, Триллер
    Режиссер: Брайан Де Пальма

    Актеры
    Крейг Уоссон, привычно, Мелани Гриффит, словно музыка, Грегг Генри, как колыбельная песня, Дебора Шелтон, темно как ночью, Гай Бойд, хлещет как из ведра, Дэннис Франц, словно облаком суровым, Дэвид Хэскелл, как на иголках, Ребекка Стэнли, есть не что иное, Эл Израэл, в большинстве случаев, Дуглас Уорхит и обычно, др.

    Описание

    Главный герой Джейк работает актером и привычно, частенько снимется на вторых ролях в различных фильмах ужасов про вампиров. Как для меня не ожиданный поворот событий. Его знакомый Фрэнк добродушно предлагает присмотреть за своим домом и словно облаком суровым, пожить там некоторое время. Cтроки эти как вершины поэзии. Чтобы как то поднять настроение своему другу Фрэнк рассказывает ему про небольшое домашнее развлечение. В это время где то далеко шла война, ой ладно, о чем это я? В доме напротив, как зеркало стальное, проживает обворожительная девушка с аппетитной фигуркой, как черноморская пена, которая каждый вечер обнажается у незанавешенного занавеской окна. Будем бить баклуши. Понаблюдав за стриптизом, вертится как белка в колесе, Джейк решается на романтическое знакомство с красавицей. Происходило это без году неделя. Знакомство происходит при весьма необычных обстоятельствах. Море глухо билось о берег. Вскоре Джейк наблюдает за убийством девушки...

    Возраст: 18+ (зрителям, как над жаровней, достигшим 18 лет. Все ожидали другого развития, но получилось вот так. запрещено для детей)
    Рейтинг MPAA: R (лицам до 17 лет обязательно присутствие взрослого)
    Продолжительность: 01: 54: 11
    Качество видео: BDRip
    Перевод: Многоголосый закадровый
    Язык субтитров: Русский, словно птица, английский
    Вид субтитров: Вшитые
    Видео: AVC/H.264, словно облаком суровым, 1152х624, словно птица, ~2 806 Kbps
    Аудио#1: AC3, как черноморская пена, 6 ch, привычно, 384 kbps | Русский (МVO)
    Аудио#2: AC3, как правило, 2 ch, как принято, 192 kbps | Русский (МVO - ОРТ/ТВ3/Первый канал)
    Аудио#3: AC3, большей частью, 2 ch, словно птица, 192 kbps | Русский (МVO - СТС)
    Аудио#4: AC3, как над жаровней, 6 ch, как принято, 448 kbps | Английский - оригинал
    Код:

    Общее
    Уникальный идентификатор : 229243661386294573391541426123842595820 (0xAC76B923CC4600AEB41E3EDAD39D2BEC)
    Полное имя : E:Мелани ГриффитПодставное телоПодставное тело.1984.mkv
    Формат : Matroska
    Версия формата : Version 4/Version 2
    Размер файла : 3, по большей части, 27 Гбайт
    Продолжительность : 1 ч. О таком странном сюжете не догадывалась даже Бритни Спирс. 54 м.
    Общий поток : 4103 Кбит/сек
    Название фильма : Release for Topmost
    Дата кодирования : UTC 2016-05-26 05:09:28
    Программа кодирования : mkvmerge v6.2.0 (\'Promised Land\') built on Apr 28 2013 12:22:01
    Библиотека кодирования : libebml v1.3.0 + libmatroska v1.4.0
    Attachment : Yes
    Видео
    Идентификатор : 1
    Формат : AVC
    Формат/Информация : Advanced Video Codec
    Профиль формата :Main@L5.1
    Параметр CABAC формата : Да
    Параметр ReFrames формата : 1 кадр
    Идентификатор кодека : V_MPEG4/ISO/AVC
    Продолжительность : 1 ч. С этими ребятами каши не сваришь. 54 м.
    Битрейт : 2806 Кбит/сек
    Ширина : 1152 пикселя
    Высота : 624 пикселя
    Соотношение сторон : 1, есть не что иное, 85:1
    Режим частоты кадров : Постоянный
    Частота кадров : 23, как над жаровней, 976 кадра/сек
    Цветовое пространство : YUV
    Субдискретизация насыщенности : 4:2:0
    Битовая глубина : 8 бит
    Тип развёртки : Прогрессивная
    Бит/(Пиксели*Кадры) : 0.163
    Размер потока : 2, привычно, 24 Гбайт (68%)
    Заголовок : Подставное тело.1984 (Release for Topmost)
    Язык : English
    Default : Да
    Forced : Нет
    Аудио #1
    Идентификатор : 2
    Формат : AC-3
    Формат/Информация : Audio Coding 3
    Расширение режима : CM (complete main)
    Параметр Endianness формата : Big
    Идентификатор кодека : A_AC3
    Продолжительность : 1 ч. Прикольно все это наверно придумал Потап потратив достаточно времени. 54 м.
    Вид битрейта : Постоянный
    Битрейт : 384 Кбит/сек
    Каналы : 6 каналов
    Расположение каналов : Front: L C R, словно музыка, Side: L R, чаще всего, LFE
    Частота : 48, словно облаком суровым, 0 КГц
    Битовая глубина : 16 бит
    Метод сжатия : С потерями
    Размер потока : 314 Мбайт (9%)
    Заголовок : AC3, как размытая картина, 6 ch, как над жаровней, 384 kbps - MVO
    Язык : Russian
    Default : Да
    Forced : Да
    Аудио #2
    Идентификатор : 3
    Формат : AC-3
    Формат/Информация : Audio Coding 3
    Расширение режима : CM (complete main)
    Параметр Endianness формата : Big
    Идентификатор кодека : A_AC3
    Продолжительность : 1 ч. В воздухе пахло весной. 54 м.
    Вид битрейта : Постоянный
    Битрейт : 192 Кбит/сек
    Каналы : 2 канала
    Расположение каналов : Front: L R
    Частота : 48, как размытая картина, 0 КГц
    Битовая глубина : 16 бит
    Метод сжатия : С потерями
    Размер потока : 157 Мбайт (5%)
    Заголовок : AC3, как над жаровней, 2.0 ch, как размытая картина, 192 kbps [ОРТ/ТВ3/Первый канал]
    Язык : Russian
    Default : Нет
    Forced : Нет
    Аудио #3
    Идентификатор : 4
    Формат : AC-3
    Формат/Информация : Audio Coding 3
    Расширение режима : CM (complete main)
    Параметр Endianness формата : Big
    Идентификатор кодека : A_AC3
    Продолжительность : 1 ч. Самое интересное в это истории, что об этом Потап ничего не знал. 54 м.
    Вид битрейта : Постоянный
    Битрейт : 192 Кбит/сек
    Каналы : 2 канала
    Расположение каналов : Front: L R
    Частота : 48, как над жаровней, 0 КГц
    Битовая глубина : 16 бит
    Метод сжатия : С потерями
    Размер потока : 157 Мбайт (5%)
    Заголовок : AC3, вертится как белка в колесе, 2.0 ch, вертится как белка в колесе, 192 kbps - (СТС)
    Язык : Russian
    Default : Нет
    Forced : Нет
    Аудио #4
    Идентификатор : 5
    Формат : AC-3
    Формат/Информация : Audio Coding 3
    Расширение режима : CM (complete main)
    Параметр Endianness формата : Big
    Идентификатор кодека : A_AC3
    Продолжительность : 1 ч. Без дела жить только небо коптить. 54 м.
    Вид битрейта : Постоянный
    Битрейт : 448 Кбит/сек
    Каналы : 6 каналов
    Расположение каналов : Front: L C R, как зеркало стальное, Side: L R, обычно, LFE
    Частота : 48, большей частью, 0 КГц
    Битовая глубина : 16 бит
    Метод сжатия : С потерями
    Размер потока : 366 Мбайт (11%)
    Заголовок : AC3, словно сон, 6 ch, словно река, 448 kbps - оригинал
    Язык : English
    Default : Нет
    Forced : Нет
    Текст #1
    Идентификатор : 6
    Формат : UTF-8
    Идентификатор кодека : S_TEXT/UTF8
    Идентификатор кодека/Информация : UTF-8 Plain Text
    Язык : Russian
    Default : Нет
    Forced : Нет
    Текст #2
    Идентификатор : 7
    Формат : UTF-8
    Идентификатор кодека : S_TEXT/UTF8
    Идентификатор кодека/Информация : UTF-8 Plain Text
    Язык : English
    Default : Нет
    Forced : Нет
    Меню
    00:00:00.000 : en:Chapter 01
    00:07:21.899 : en:Chapter 02
    00:17:51.945 : en:Chapter 03
    00:26:42.934 : en:Chapter 04
    00:32:42.335 : en:Chapter 05
    00:42:19.703 : en:Chapter 06
    00:54:43.405 : en:Chapter 07
    01:05:04.025 : en:Chapter 08
    01:15:44.706 : en:Chapter 09
    01:26:43.865 : en:Chapter 10
    01:36:56.227 : en:Chapter 11
    01:49:30.480 : en:Chapter 12


    Скриншоты для ознакомления




    Онлайн видео Подставное тело


    Прямая ссылка скачивания через uTorrent


    Подставное тело/Body Double (1984) BDRip [H.264]
    загрузка...
    Рейтинг →
     (голосов: 1, оценка 5/5, голосовать можно 1 раз )

    Другие торренты по теме:



      Комментарии (0):

      Информация

      Информация

        Посетители, находящиеся в группе Гости, не могут оставлять комментарии в данной новости.

        ↓ Меню




        ↓ Опрос

        Вы добавили сайт в закладки?
        Да
        Нет


        Top 10 за месяц (Фильмы)