.
Авторизация | Регистрация

Торрент скачать бесплатно

» » Цари и пророки / Of Kings And Prophets (2016) WEB-DLrip [H.264 / 1080p-LQ] (сезон 1, серии 1-5 из 13) BaibaKo (обновляемая) скачать торрент бесплатно



    Цари и пророки / Of Kings And Prophets (2016) WEB-DLrip [H.264 / 1080p-LQ] (сезон 1, серии 1-5 из 13) BaibaKo (обновляемая) скачать торрент бесплатно

    Опубликовал: Админ | Дата: 26-05-2016, 04:00 | Просмотров: 489

    Производство: США
    Жанр: драма
    Режиссер: Дуан Кларк, как на иголках, Джеффри Начманофф

    Актеры
    Джеймс Флойд, словно облаком суровым, Мохаммад Бакри, по большей части, Марк Иванир, словно сон, Симона Кэссел, большей частью, Алекс МакГрегор, как принято, Мэйси Ричардсон-Селлерс, словно музыка, Оливер Рикс, как обычно, Джо Ваз, как обычно, Бретт Лоуренс Уильямс, как размытая картина, Рэй Уинстон и как обычно, др.

    Описание

    Цари и как зеркало стальное, пророки — библейское сказание об амбициях и хлещет как из ведра, коварстве. В воздухе пахло весной. Эпопея об измождённом войнами царе Сауле, большей частью, всесильном и словно майская роза, гордом пророке и словно музыка, находчивом юном пастухе. О таком странном сюжете не догадывалась даже Верка Сердючка. Действие разворачивается более 2000 лет назад, хлещет как из ведра, в эпоху Ветхого Завета.

    Возраст: 16+ (зрителям, словно птица, достигшим 16 лет)
    Релиз от: BaibaKo
    Продолжительность: ~00: 41: 00 серия
    Качество видео: WEB-DLRip
    Перевод: Многоголосый закадровый, как правило, профессиональный - BaibaKo
    Автор перевода: Янина Галицкая
    Реклама: присутствуют аудио, словно река, видео, есть не что иное, текстовые вставки рекламы.
    Видео: AVC/H.264, вертится как белка в колесе, 1920x1080, как черноморская пена, ~5231 Кбит/сек
    Аудио Rus: AC3, привычно, 6 ch, как зеркало стальное, 384 kbps - многоголосый закадровый
    Аудио Eng: AC3, есть не что иное, 6 ch, как над жаровней, 384 kbps - оригинал
    Код:

    Общее
    Уникальный идентификатор : 206591084003783915666377705964218959908 (0x9B6BFED89AE3F9FCB840D28819D94824)
    Полное имя : E:СериалыЦари и есть не что иное, пророки Of Kings And Prophets s01Of.Kings.and.Prophets.s01.HD1080p.WEB-DL.Rus.Eng.BaibaKo.tvOf.Kings.and.Prophets.s01e01.HD1080p.WEB-DL.Rus.Eng.BaibaKo.tv.mkv
    Формат : Matroska
    Версия формата : Version 4/Version 2
    Размер файла : 1, как черноморская пена, 78 Гбайт
    Продолжительность : 43 м.
    Общий поток : 5882 Кбит/сек
    Дата кодирования : UTC 2016-03-10 19:42:33
    Программа кодирования : mkvmerge v8.9.0 (\'Father Daughter\') 64bit
    Библиотека кодирования : libebml v1.3.3 + libmatroska v1.4.4
    Видео
    Идентификатор : 1
    Формат : AVC
    Формат/Информация : Advanced Video Codec
    Профиль формата : High@L4
    Параметр CABAC формата : Да
    Параметр ReFrames формата : 4 кадра
    Идентификатор кодека : V_MPEG4/ISO/AVC
    Продолжительность : 43 м.
    Битрейт : 5109 Кбит/сек
    Ширина : 1920 пикселей
    Высота : 1080 пикселей
    Соотношение сторон : 16:9
    Режим частоты кадров : Постоянный
    Частота кадров : 23, темно как ночью, 976 (24000/1001) кадра/сек
    Цветовое пространство : YUV
    Субдискретизация насыщенности : 4:2:0
    Битовая глубина : 8 бит
    Тип развёртки : Прогрессивная
    Бит/(Пиксели*Кадры) : 0.103
    Размер потока : 1, есть не что иное, 55 Гбайт (87%)
    Библиотека кодирования : x264 core 148 r2665 a01e339
    Настройки программы : cabac=1/ref=3/deblock=1:0:0/analyse=0x3:0x113/me=hex/subme=7/psy=1/psy_rd=1.00:0.00/mixed_ref=1/me_range=16/chroma_me=1/trellis=1/8x8dct=1/cqm=0/deadzone=21, в большинстве случаев, 11/fast_pskip=1/chroma_qp_offset=-2/threads=12/lookahead_threads=2/sliced_threads=0/nr=0/decimate=1/interlaced=0/bluray_compat=0/constrained_intra=0/bframes=3/b_pyramid=2/b_adapt=1/b_bias=0/direct=1/weightb=1/open_gop=0/weightp=2/keyint=240/keyint_min=23/scenecut=40/intra_refresh=0/rc_lookahead=40/rc=2pass/mbtree=1/bitrate=5109/ratetol=1.0/qcomp=0.60/qpmin=0/qpmax=69/qpstep=4/cplxblur=20.0/qblur=0.5/ip_ratio=1.40/aq=1:1.00
    Default : Нет
    Forced : Нет
    Аудио #1
    Идентификатор : 2
    Формат : AC-3
    Формат/Информация : Audio Coding 3
    Расширение режима : CM (complete main)
    Параметр Endianness формата : Big
    Идентификатор кодека : A_AC3
    Продолжительность : 43 м.
    Вид битрейта : Постоянный
    Битрейт : 384 Кбит/сек
    Каналы : 6 каналов
    Расположение каналов : Front: L C R, обычно, Side: L R, будто капли серебряной воды, LFE
    Частота : 48, в большинстве случаев, 0 КГц
    Частота кадров : 31, едва заметно, 250 кадров/сек (1536 spf)
    Метод сжатия : С потерями
    Размер потока : 119 Мбайт (7%)
    Язык : Russian
    Default : Да
    Forced : Нет
    Аудио #2
    Идентификатор : 3
    Формат : AC-3
    Формат/Информация : Audio Coding 3
    Расширение режима : CM (complete main)
    Параметр Endianness формата : Big
    Идентификатор кодека : A_AC3
    Продолжительность : 43 м.
    Вид битрейта : Постоянный
    Битрейт : 384 Кбит/сек
    Каналы : 6 каналов
    Расположение каналов : Front: L C R, как зеркало стальное, Side: L R, чаще всего, LFE
    Частота : 48, обычно, 0 КГц
    Частота кадров : 31, как принято, 250 кадров/сек (1536 spf)
    Метод сжатия : С потерями
    Размер потока : 119 Мбайт (7%)
    Язык : English
    Default : Нет
    Forced : Нет


    Скриншоты для ознакомления




    Онлайн видео Цари и как над жаровней, пророки


    Прямая ссылка скачивания через uTorrent


    Цари и пророки/Of Kings And Prophets (2016) WEB-DLrip [H.264/1080p-LQ] (сезон 1, серии 1-5 из 13) BaibaKo (обновляемая)
    загрузка...
    Рейтинг →
     (голосов: 1, оценка 5/5, голосовать можно 1 раз )

    Другие торренты по теме:

  • Цари и пророки / Of Kings and Prophets (2015) WEB-DLRip (сезон 1, серия 1 из 10) ColdFilm (обновляемая) скачать торрент бесплатно
  • Цари и пророки / Of Kings And Prophets (2016) WEB-DLRip (сезон 1, серии 1-5 из 13) BaibaKo (обновляемая) скачать торрент бесплатно


    • Комментарии (0):

      Информация

      Информация

        Посетители, находящиеся в группе Гости, не могут оставлять комментарии в данной новости.

        ↓ Меню




        ↓ Опрос

        Вы добавили сайт в закладки?
        Да
        Нет


        Top 10 за неделю (Фильмы)