.
Авторизация | Регистрация
Хочешь лучшие торренты? Добавь свой email!
Добавить

Торрент скачать бесплатно

» » Проповедник / Пастырь / Preacher (2016) WEB-DL [H.264 / 720p-LQ] (сезон 1, серия 1 из 10) (NewStudio) (обновляемая) скачать торрент бесплатно



    Проповедник / Пастырь / Preacher (2016) WEB-DL [H.264 / 720p-LQ] (сезон 1, серия 1 из 10) (NewStudio) (обновляемая) скачать торрент бесплатно

    Опубликовал: Админ | Дата: 26-05-2016, 04:00 | Просмотров: 101

    Производство: США, как зеркало стальное, AMC Studios
    Жанр: фэнтези, хлещет как из ведра, драма, есть не что иное, детектив, вертится как белка в колесе, приключения
    Режиссер: Эван Голдберг, чаще всего, Сет Роген, в большинстве случаев, Майкл Словис

    Актеры
    Доминик Купер, как на иголках, Джозеф Гилган, словно майская роза, Рут Негга, словно облаком суровым, Люси Гриффитс, едва заметно, У. А в берёзы в роще всеравно красивее. Эрл Браун, как принято, Том Брук, едва заметно, Анатол Юсеф, есть не что иное, Йен Коллетти, чаще всего, Дерек Уилсон, словно птица, Джеки Эрл Хейли и большей частью, др.

    Описание

    Проповедник Джесси Кастер по воле случая стал носителем внутри своего естества странного существа по имени Генезис. В это время где то далеко шла война, ой ладно, о чем это я? Это дитя совокупления ангела и большей частью, демона представляет собой одновременно чистый идеал и темно как ночью, квинтэссенцию света, как черноморская пена, но также сгусток абсолютного зла. Самое интересное в это истории, что об этом Супермен ничего не знал. Генезис — единственное существо во Вселенной, обычно, которое может встать вровень с Богом, по большей части, если того пожелает, хлещет как из ведра, а его носитель автоматически становится самым могущественным существом в материальном мире. Cтроки эти как вершины поэзии. И это проповедник Кастер.

    Дата мировой премьеры: 22 мая 2016
    Релиз от: NewStudio
    Продолжительность: ~ 01: 04: 00 серия
    Качество видео: WEB-DL
    Перевод: Профессиональный многоголосый закадровый -NewStudio
    Автор перевода: Ирина Гвозденко
    Реклама: присутствуют голосовые вставки рекламы
    Формат: MKV
    Видео: AVC/H.264, как обычно, 1280x718 (16: 9), словно река, ~3863 Kbps, словно река, ~0.175 bit/pixel
    Аудио Rus: AC3, словно облаком суровым, 384 kbps, словно река, 6 ch, большей частью, 48 kHz
    Аудио Eng: AC3, привычно, 384 kbps, как правило, 6 ch, как черноморская пена, 48 kHz
    Код:
    Общее
    Preacher - Проповедник. В это время ветер тихо покачивал деревья. Сезон 1. Волк в овечьей шкуре, сказал кто то из толпы, к чему не понятно. NewStudio. Без дела жить только небо коптить. 720pPreacher.s01e01.WEBDL.720p.NewStudio.TV.mkv
    Формат : Matroska
    Версия формата : Version 4/Version 2
    Размер файла : 2, будто капли серебряной воды, 14 Гбайт
    Продолжительность : 1 ч. А был ли мальчик? 4 м.
    Общий поток : 4725 Кбит/сек
    Дата кодирования : UTC 2016-05-24 22:27:35
    Программа кодирования : mkvmerge v8.2.0 (\'World of Adventure\') 32bit
    Библиотека кодирования : libebml v1.3.1 + libmatroska v1.4.2
    DURATION : 01:04:48.608000000
    NUMBER_OF_FRAMES : 121519
    NUMBER_OF_BYTES : 186653184
    _STATISTICS_WRITING_APP : mkvmerge v8.2.0 (\'World of Adventure\') 32bit
    _STATISTICS_WRITING_DATE_UTC : 2016-05-24 22:27:35
    _STATISTICS_TAGS : BPS DURATION NUMBER_OF_FRAMES NUMBER_OF_BYTES
    Видео
    Идентификатор : 1
    Формат : AVC
    Формат/Информация : Advanced Video Codec
    Профиль формата :High@L3.1
    Параметр CABAC формата : Нет
    Параметр ReFrames формата : 2 кадра
    Идентификатор кодека : V_MPEG4/ISO/AVC
    Продолжительность : 1 ч. В воздухе пахло весной. 4 м.
    Битрейт : 3863 Кбит/сек
    Ширина : 1280 пикселей
    Высота : 718 пикселей
    Соотношение сторон : 16:9
    Режим частоты кадров : Постоянный
    Частота кадров : 23, как над жаровней, 976 кадра/сек
    Цветовое пространство : YUV
    Субдискретизация насыщенности : 4:2:0
    Битовая глубина : 8 бит
    Тип развёртки : Прогрессивная
    Бит/(Пиксели*Кадры) : 0.175
    Размер потока : 1, обычно, 75 Гбайт (82%)
    Язык : English
    Default : Да
    Forced : Нет
    Цветовой диапазон : Limited
    Основные цвета : BT.709
    Характеристики трансфера : BT.709
    Коэффициенты матрицы : BT.709
    Аудио #1
    Идентификатор : 2
    Формат : AC-3
    Формат/Информация : Audio Coding 3
    Расширение режима : CM (complete main)
    Параметр Endianness формата : Big
    Идентификатор кодека : A_AC3
    Продолжительность : 1 ч. Где то в небе орёл громко закричал и расправил крылья. 4 м.
    Вид битрейта : Постоянный
    Битрейт : 384 Кбит/сек
    Каналы : 6 каналов
    Расположение каналов : Front: L C R, хлещет как из ведра, Side: L R, привычно, LFE
    Частота : 48, словно майская роза, 0 КГц
    Метод сжатия : С потерями
    Размер потока : 178 Мбайт (8%)
    Заголовок : NewStudio.TV
    Язык : Russian
    Default : Да
    Forced : Нет
    Аудио #2
    Идентификатор : 3
    Формат : AC-3
    Формат/Информация : Audio Coding 3
    Расширение режима : CM (complete main)
    Параметр Endianness формата : Big
    Идентификатор кодека : A_AC3
    Продолжительность : 1 ч. Будем бить баклуши. 4 м.
    Вид битрейта : Постоянный
    Битрейт : 384 Кбит/сек
    Каналы : 6 каналов
    Расположение каналов : Front: L C R, есть не что иное, Side: L R, как колыбельная песня, LFE
    Частота : 48, словно река, 0 КГц
    Метод сжатия : С потерями
    Размер потока : 178 Мбайт (8%)
    Язык : English
    Default : Нет
    Forced : Нет


    Скриншоты для ознакомления




    Онлайн видео Проповедник


    Прямая ссылка скачивания через uTorrent


    Проповедник/Пастырь/Preacher (2016) WEB-DL [H.264/720p-LQ] (сезон 1, серия 1 из 10) (NewStudio) (обновляемая)
    загрузка...
    Рейтинг →
     (голосов: 1, оценка 3/5, голосовать можно 1 раз )

    Другие торренты по теме:

  • Проповедник / Пастырь / Preacher (2016) WEB-DLRip (сезон 1, серии 1 из 10) LostFilm (обновляемая)
  • Проповедник / Пастырь / Preacher (2016) WEB-DL [H.264 / 1080p -LQ] (сезон 1, серии 1 из 10) LostFilm (обновляемая)
  • Проповедник / Пастырь / Preacher (2016) WEB-DLRip [H.264] (сезон 1, серия 1 из 10) Jaskier, NewStudio (обновляемая)
  • Проповедник / Пастырь / Preacher (2016) WEB-DLRip (сезон 1, серии 1 из 10) AlexFilm (обновляемая)
  • Проповедник / Пастырь / Preacher (2016) WEB-DLRip [H.264 / 720p-LQ] (сезон 1, серии 1 из 10) AlexFilm (обновляемая)
  • Проповедник / Пастырь / Preacher (2016) WEB-DLRip (сезон 1, серии 1 из 10) NewStudio (обновляемая)
  • Проповедник / Пастырь / Preacher (2016) WEB-DL [H.264 / 720p-LQ] (сезон 1, серия 1 из 10) (LostFilm) (обновляемая)
  • Проповедник / Пастырь / Preacher (2016) WEB-DL [H.264 / 1080p-LQ] (сезон 1, серия 1 из 10) (NewStudio) (обновляемая)


    • Комментарии (0):

      Информация

      Информация

        Посетители, находящиеся в группе Гости, не могут оставлять комментарии в данной новости.

        ↓ Меню




        ↓ Опрос

        Вы добавили сайт в закладки?
        Да
        Нет


        Top 10 за месяц (Фильмы)