.
Авторизация | Регистрация
Хочешь лучшие торренты? Добавь свой email!
Добавить

Торрент скачать бесплатно

» » Изгой / Outcast (2016) HDTVRip [H.264 / 720p-LQ] (сезон 1, серии 1 из 10) NewStudio (обновляемая) торрент скачать бесплатно



    Изгой / Outcast (2016) HDTVRip [H.264 / 720p-LQ] (сезон 1, серии 1 из 10) NewStudio (обновляемая) торрент скачать бесплатно

    Опубликовал: Админ | Дата: 26-05-2016, 04:00 | Просмотров: 451

    Производство: США/Fox International Channels
    Жанр: ужасы, драма
    Режиссер: Ли Джаньяк, Лони Перистер, Джулиус Рамсей

    Актеры
    Ренн Шмидт, Патрик Фьюджит, Филип Гленистер, Дэвид Денман, Рег Э. Кэти, Калли Брук МакКлинси, Пит Буррис, Мелинда МакГроу, Мадлен МакГроу, Дебра Кристофферсон и др.

    Описание

    Экранизация комикса Роберта Киркмана с одноименным названием о парне, одержимом бесами.
    Добровольный отшельник Кайл Барнс, все время проживающий с бесами внутри, связывается со священником-евангелистом из Западной Вирджинии, пьяницей и азартным игроком, чтоб изгонять демонов.

    Дата мировой премьеры: 23 мая 2016
    Продолжительность: ~00: 55: 00 серия
    Качество видео: HDTVRip
    Перевод: Многоголосый закадровый, профессиональный -NewStudio
    Автор перевода: Юлия Мейер
    Реклама: присутствуют голосовые вставки рекламы
    Видео: AVC/H.264, 1280x720 (16: 9), ~3389 kb/s
    Аудио Rus: AC3, 48, 0 kHz, 6 ch, 384 kb/s — многоголосый закадровый
    Аудио Eng: AC3, 48, 0 kHz, 6 ch, 384 kb/s — оригинал
    Код:

    General
    Unique ID : 250538441274919510717084197587177581297 (0xBC7BF2D93A8CAC3AA57E7209477E2AF1)
    Complete name : Outcast [S01] [NewStudio]Outcast.s01e01.HDTV.720p.NewStudio.TV.mkv
    Format : Matroska
    Format version : Version 4/Version 2
    File size : 1.59 GiB
    Duration : 54mn 49s
    Overall bit rate : 4 159 Kbps
    Encoded date : UTC 2016-05-24 17:30:04
    Writing application : mkvmerge v8.2.0 (\'World of Adventure\') 64bit
    Writing library : libebml v1.3.1 + libmatroska v1.4.2
    Video
    ID : 1
    Format : AVC
    Format/Info : Advanced Video Codec
    Format profile :High@L4.1
    Format settings, CABAC : Yes
    Format settings, ReFrames : 5 frames
    Codec ID : V_MPEG4/ISO/AVC
    Duration : 54mn 49s
    Bit rate : 3 389 Kbps
    Width : 1 280 pixels
    Height : 720 pixels
    Display aspect ratio : 16:9
    Frame rate mode : Constant
    Frame rate : 23.976 (24000/1001) fps
    Color space : YUV
    Chroma subsampling : 4:2:0
    Bit depth : 8 bits
    Scan type : Progressive
    Bits/(Pixel*Frame) : 0.153
    Stream size : 1.30 GiB (81%)
    Writing library : x264 core 148 r2692 64f4e24
    Encoding settings : cabac=1/ref=5/deblock=1:0:0/analyse=0x3:0x113/me=umh/subme=8/psy=1/psy_rd=1.00:0.00/mixed_ref=1/me_range=16/chroma_me=1/trellis=1/8x8dct=1/cqm=0/deadzone=21, 11/fast_pskip=1/chroma_qp_offset=-2/threads=18/lookahead_threads=3/sliced_threads=0/nr=0/decimate=1/interlaced=0/bluray_compat=0/constrained_intra=0/bframes=3/b_pyramid=2/b_adapt=2/b_bias=0/direct=3/weightb=1/open_gop=0/weightp=2/keyint=250/keyint_min=23/scenecut=40/intra_refresh=0/rc_lookahead=50/rc=crf/mbtree=1/crf=18.0/qcomp=0.60/qpmin=0/qpmax=69/qpstep=4/ip_ratio=1.40/aq=1:1.00
    Default : Yes
    Forced : No
    Color range : Limited
    Matrix coefficients : BT.709
    Audio #1
    ID : 2
    Format : AC-3
    Format/Info : Audio Coding 3
    Mode extension : CM (complete main)
    Format settings, Endianness : Big
    Codec ID : A_AC3
    Duration : 54mn 49s
    Bit rate mode : Constant
    Bit rate : 384 Kbps
    Channel(s) : 6 channels
    Channel positions : Front: L C R, Side: L R, LFE
    Sampling rate : 48.0 KHz
    Frame rate : 31.250 fps (1536 spf)
    Compression mode : Lossy
    Stream size : 151 MiB (9%)
    Language : Russian
    Default : Yes
    Forced : Yes
    Audio #2
    ID : 3
    Format : AC-3
    Format/Info : Audio Coding 3
    Mode extension : CM (complete main)
    Format settings, Endianness : Big
    Codec ID : A_AC3
    Duration : 54mn 49s
    Bit rate mode : Constant
    Bit rate : 384 Kbps
    Channel(s) : 6 channels
    Channel positions : Front: L C R, Side: L R, LFE
    Sampling rate : 48.0 KHz
    Frame rate : 31.250 fps (1536 spf)
    Compression mode : Lossy
    Stream size : 151 MiB (9%)
    Default : No
    Forced : No


    Скриншоты для ознакомления




    Онлайн видео Изгой


    Прямая ссылка скачивания через uTorrent


    Изгой/Outcast (2016) HDTVRip [H.264/720p-LQ] (сезон 1, серии 1 из 10) NewStudio (обновляемая)
    загрузка...
    Рейтинг →
     (голосов: 1, оценка 3/5, голосовать можно 1 раз )

    Другие торренты по теме:

  • Изгой / Outcast (2016) WEBRip (сезон 1, серии 1 из 10) OMSKBIRD (обновляемая)
  • Изгой / Outcast (2016) WEBRip [H.264 / 720p-LQ] (сезон 1, серии 1 из 10) OMSKBIRD (обновляемая)
  • Изгой / Outcast (2016) HDTVRip (сезон 1, серии 1 из 10) NewStudio (обновляемая)
  • Изгой / Outcast (2016) HDTV [H.264 / 720p-LQ] (сезон 1, серия 1 из 10) (AlexFilm) (обновляемая)
  • Изгой / Outcast (2016) WEBRip [H.264 / 720p-LQ] (сезон 1, серии 1 из 10) BaibaKo (обновляемая)
  • Изгой / Outcast (2016) HDTVRip (сезон 1, серии 1 из 10) AlexFilm (обновляемая)
  • Изгой / Outcast (2016) HDTVRip (сезон 1, серии 1 из 10) LostFilm (обновляемая)
  • Изгой / Outcast (2016) HDTVRip [H.264 / 720p-LQ] (сезон 1, серии 1-1 из 10) LostFilm (обновляемая)


    • Комментарии (0):

      Информация

      Информация

        Посетители, находящиеся в группе Гости, не могут оставлять комментарии в данной новости.

        ↓ Меню




        ↓ Опрос

        Вы добавили сайт в закладки?
        Да
        Нет


        Top 10 за месяц (Фильмы)