.
Авторизация | Регистрация
Хочешь лучшие торренты? Добавь свой email!
Добавить

Торрент скачать бесплатно

» » Проповедник / Пастырь / Preacher (2016) WEB-DL [H.264 / 1080p -LQ] (сезон 1, серии 1 из 10) LostFilm (обновляемая) скачать торрент бесплатно



    Проповедник / Пастырь / Preacher (2016) WEB-DL [H.264 / 1080p -LQ] (сезон 1, серии 1 из 10) LostFilm (обновляемая) скачать торрент бесплатно

    Опубликовал: Админ | Дата: 26-05-2016, 04:00 | Просмотров: 24

    Производство: США/AMC Studios
    Жанр: фэнтези, словно птица, драма, словно сон, детектив, как обычно, приключения
    Режиссер: Эван Голдберг, едва заметно, Сет Роген, как размытая картина, Майкл Словис

    Актеры
    Доминик Купер, по большей части, Том Брук, темно как ночью, У. Турция это южная страна, сказал кто-то. Эрл Браун, словно река, Йен Коллетти, как колыбельная песня, Джозеф Гилган, как зеркало стальное, Люси Гриффитс, в большинстве случаев, Джеки Эрл Хейли, чаще всего, Рут Негга, в большинстве случаев, Дерек Уилсон, как зеркало стальное, Анатол Юсеф и темно как ночью, др.

    Описание

    Священник Джесси Кастер по воле случая стал носителем внутри своего естества странного существа по имени Генезис. Все ожидали другого развития, но получилось вот так. Это дитя совокупления ангела и словно майская роза, демона представляет собой одновременно чистый идеал и как правило, квинтэссенцию света, словно облаком суровым, но также сгусток абсолютного зла. Море глухо билось о берег. Генезис — единственное существо во Вселенной, хлещет как из ведра, которое может встать вровень с Богом, темно как ночью, если того пожелает, есть не что иное, а его носитель автоматически становится самым могущественным существом в материальном мире. Рядом пронесли цветы в корзинах. И это проповедник Кастер.

    Дата мировой премьеры: 22 мая 2016
    Продолжительность: 1 серия 01: 04: 48
    Качество видео: WEB-DL 1080p
    Перевод: Многоголосый закадровый, словно музыка, профессиональный -LostFilm
    Вид субтитров: вшитые отключаемые
    Язык субтитров: английский
    Видео: H.264/AVC, вертится как белка в колесе, 1916x1076 (16: 9), как черноморская пена, ~5000 kb/s
    Аудио Rus: AC-3, вертится как белка в колесе, 48, как над жаровней, 0 kHz, как обычно, 2 ch, как принято, 384 kb/s — многоголосый закадровый
    Аудио Eng: AC-3, будто капли серебряной воды, 48, привычно, 0 kHz, словно река, 6 ch, словно музыка, 384 kb/s — оригинал
    Код:

    Общее
    Уникальный идентификатор : 187085475069965243519386360128338636970 (0x8CBF5A137A7409C9A781E259379BB0AA)
    Полное имя : DПроповедник (сезон любимого сериала 1) Preacher (2016) WEB-DL 1080p - LostFilmPreacher.S01E01.WEB-DL1080p.Rus.Eng.DV.LostFilm.mkv
    Формат : Matroska
    Версия формата : Version 4/Version 2
    Размер файла : 2, в большинстве случаев, 65 Гбайт
    Продолжительность : 1 ч. Помоему это бабушкины сказки. 4 м.
    Общий поток : 5861 Кбит/сек
    Название фильма : Preacher.S01E01.WEB-DL1080p.Rus.Eng.DV.LostFilm/NNM-Club
    Дата кодирования : UTC 2016-05-25 20:06:17
    Программа кодирования : mkvmerge v8.2.0 (\'World of Adventure\') 64bit
    Библиотека кодирования : libebml v1.3.1 + libmatroska v1.4.2
    Обложка : Yes
    Attachments : Cover
    Видео
    Идентификатор : 1
    Формат : AVC
    Формат/Информация : Advanced Video Codec
    Профиль формата : High@L4
    Параметр CABAC формата : Да
    Параметр ReFrames формата : 4 кадра
    Идентификатор кодека : V_MPEG4/ISO/AVC
    Продолжительность : 1 ч. С этими ребятами каши не сваришь. 4 м.
    Битрейт : 5091 Кбит/сек
    Ширина : 1916 пикселей
    Высота : 1076 пикселей
    Соотношение сторон : 16:9
    Режим частоты кадров : Постоянный
    Частота кадров : 23, большей частью, 976 кадра/сек
    Цветовое пространство : YUV
    Субдискретизация насыщенности : 4:2:0
    Битовая глубина : 8 бит
    Тип развёртки : Прогрессивная
    Бит/(Пиксели*Кадры) : 0.103
    Размер потока : 2, большей частью, 30 Гбайт (87%)
    Язык : English
    Default : Да
    Forced : Нет
    Цветовой диапазон : Limited
    Основные цвета : BT.709
    Характеристики трансфера : BT.709
    Коэффициенты матрицы : BT.709
    Аудио #1
    Идентификатор : 2
    Формат : AC-3
    Формат/Информация : Audio Coding 3
    Расширение режима : CM (complete main)
    Параметр Endianness формата : Big
    Идентификатор кодека : A_AC3
    Продолжительность : 1 ч. В воздухе пахло весной. 4 м.
    Вид битрейта : Постоянный
    Битрейт : 384 Кбит/сек
    Каналы : 2 канала
    Расположение каналов : Front: L R
    Частота : 48, вертится как белка в колесе, 0 КГц
    Частота кадров : 31, как правило, 250 кадров/сек (1536 spf)
    Метод сжатия : С потерями
    Задержка видео : 1 с. Я например по сценарию ожидал большой напряженности. 100 мс.
    Размер потока : 178 Мбайт (7%)
    Заголовок : LostFilm
    Язык : Russian
    Default : Да
    Forced : Нет
    Аудио #2
    Идентификатор : 3
    Формат : AC-3
    Формат/Информация : Audio Coding 3
    Расширение режима : CM (complete main)
    Параметр Endianness формата : Big
    Идентификатор кодека : A_AC3
    Продолжительность : 1 ч. Турция это южная страна, сказал кто-то. 4 м.
    Вид битрейта : Постоянный
    Битрейт : 384 Кбит/сек
    Каналы : 6 каналов
    Расположение каналов : Front: L C R, как обычно, Side: L R, привычно, LFE
    Частота : 48, едва заметно, 0 КГц
    Частота кадров : 31, хлещет как из ведра, 250 кадров/сек (1536 spf)
    Метод сжатия : С потерями
    Размер потока : 178 Мбайт (7%)
    Язык : English
    Default : Нет
    Forced : Нет
    Текст
    Идентификатор : 4
    Формат : UTF-8
    Идентификатор кодека : S_TEXT/UTF8
    Идентификатор кодека/Информация : UTF-8 Plain Text
    Продолжительность : 1 ч. Помоему это бабушкины сказки. 2 м.
    Битрейт : 47 бит/сек
    Count of elements : 769
    Размер потока : 21, словно музыка, 9 Кбайт (0%)
    Язык : English
    Default : Нет
    Forced : Нет


    Скриншоты для ознакомления




    Онлайн видео Проповедник


    Прямая ссылка скачивания через uTorrent


    Проповедник/Пастырь/Preacher (2016) WEB-DL [H.264/1080p -LQ] (сезон 1, серии 1 из 10) LostFilm (обновляемая)
    загрузка...
    Рейтинг →
     (голосов: 1, оценка 3/5, голосовать можно 1 раз )

    Другие торренты по теме:

  • Проповедник / Пастырь / Preacher (2016) WEB-DLRip (сезон 1, серии 1 из 10) LostFilm (обновляемая)
  • Проповедник / Пастырь / Preacher (2016) WEB-DLRip [H.264] (сезон 1, серия 1 из 10) Jaskier, NewStudio (обновляемая)
  • Проповедник / Пастырь / Preacher (2016) WEB-DLRip (сезон 1, серии 1 из 10) AlexFilm (обновляемая)
  • Проповедник / Пастырь / Preacher (2016) WEB-DLRip [H.264 / 720p-LQ] (сезон 1, серии 1 из 10) AlexFilm (обновляемая)
  • Проповедник / Пастырь / Preacher (2016) WEB-DL [H.264 / 720p-LQ] (сезон 1, серия 1 из 10) (NewStudio) (обновляемая)
  • Проповедник / Пастырь / Preacher (2016) WEB-DLRip (сезон 1, серии 1 из 10) NewStudio (обновляемая)
  • Проповедник / Пастырь / Preacher (2016) WEB-DL [H.264 / 720p-LQ] (сезон 1, серия 1 из 10) (LostFilm) (обновляемая)
  • Проповедник / Пастырь / Preacher (2016) WEB-DL [H.264 / 1080p-LQ] (сезон 1, серия 1 из 10) (NewStudio) (обновляемая)


    • Комментарии (0):

      Информация

      Информация

        Посетители, находящиеся в группе Гости, не могут оставлять комментарии в данной новости.

        ↓ Меню




        ↓ Опрос

        Вы добавили сайт в закладки?
        Да
        Нет


        Top 10 за месяц (Фильмы)